<?xml version="1.0" standalone="no"?>
<!DOCTYPE svg PUBLIC "-//W3C//DTD SVG 1.1//EN" "http://www.w3.org/Graphics/SVG/1.1/DTD/svg11.dtd" >
<svg xmlns="http://www.w3.org/2000/svg">
<metadata></metadata>
<defs>
<font id="special_eliteregular" horiz-adv-x="1308" >
<font-face units-per-em="2048" ascent="1440" descent="-608" />
<missing-glyph horiz-adv-x="600" />
<glyph horiz-adv-x="2048" />
<glyph horiz-adv-x="2048" />
<glyph unicode="&#xd;" horiz-adv-x="600" />
<glyph unicode=" "  horiz-adv-x="600" />
<glyph unicode="&#x09;" horiz-adv-x="600" />
<glyph unicode="&#xa0;" horiz-adv-x="600" />
<glyph unicode="!" horiz-adv-x="566" d="M423 1149q0 -31 -3 -48t-7 -27.5t-8 -18.5t-5 -21q0 -11 1 -20.5t1 -20.5q0 -12 -4 -23t-6 -22q-6 -26 -7 -53t-1 -55q0 -26 -7 -50.5t-9 -50.5q0 -9 1 -19t1 -20t-4.5 -37t-10 -56.5t-10 -55t-4.5 -33.5q0 -12 5 -21.5t5 -15.5q0 -15 -7.5 -34.5t-18 -36t-22.5 -28 t-21 -11.5q-11 0 -20.5 8t-17 20.5t-12 29t-4.5 34.5q0 15 2 29.5t2 29.5q0 26 -7 51.5t-7 51.5q0 14 -3 27.5t-5 27.5v61q0 41 -10 77.5t-13 76.5q-5 51 -4 99.5t-2 99.5q-2 34 -8 66.5t-6 66.5q0 13 1.5 21.5t3.5 15.5t5 14t6 18q12 42 20 69t19.5 42.5t29 22t48.5 6.5 q14 0 23.5 -11.5t21.5 -17.5q6 -5 13 -5t14 -5q8 -6 16 -18.5t14 -28t9.5 -32t3.5 -30.5q0 -15 -1 -29t-1 -28q0 -22 5 -41t5 -41zM384 123q0 -26 -10 -48t-27 -39t-40 -26.5t-48 -9.5t-45 10t-34.5 26.5t-22 38t-7.5 44.5q0 60 38.5 92.5t95.5 32.5q21 0 39.5 -11.5t32 -29 t21 -39t7.5 -41.5z" />
<glyph unicode="&#x22;" horiz-adv-x="721" d="M219 920q-18 0 -32 15t-23 35t-12 40t2 31q-3 2 -4 9t-2 15t-1 15.5v11.5q0 7 5.5 9t10.5 10q4 7 -1.5 13.5t-14 11t-17 8t-8.5 4.5q3 24 0 44.5t-7.5 38t-8.5 31.5t-4 26q0 16 -2 35.5t-1.5 38t5 34.5t17.5 26q10 7 28 11.5t38 5t39 -2t30 -9.5q18 -11 25.5 -26 t9.5 -31.5t0.5 -32.5t-1.5 -28q0 -24 -6.5 -48t-6.5 -48q0 -22 -1 -39.5t-1 -39.5q0 -19 -7 -46.5t-7 -46.5q0 -12 -1 -30.5t-5 -37t-12.5 -33.5t-23.5 -20zM521 1440q33 0 51.5 -14t25.5 -43t4 -76t-12 -113q0 -4 -3.5 -5.5t-7.5 -2.5t-7.5 -3t-3.5 -7q0 -3 -4 -8.5 t-8.5 -11.5t-8 -12t-2.5 -10q-1 -2 4.5 -4.5t12 -5.5t12.5 -6t6 -6q0 -17 6 -32.5t6 -32.5v-31.5t-3 -37.5t-11 -31t-24 -13q-9 0 -14.5 -7t-13.5 -7q-24 0 -39 9t-24 24t-12 34.5t-3 40.5v15.5t0.5 -1.5t0.5 -1v16q0 45 -5.5 89t-11.5 89q-4 32 -11 54t-7 54q0 19 9 37 t24 31t34.5 21t39.5 8z" />
<glyph unicode="#" horiz-adv-x="1136" d="M1072 874q0 -9 -4.5 -21t-13.5 -22t-23 -16t-33 -4q-23 3 -46 3.5t-46 0.5q-43 0 -61.5 -8.5t-25.5 -24t-9.5 -39t-14.5 -53.5q-6 -15 -14 -29t-8 -28l2 -6q9 -8 21.5 -10.5t25.5 -2.5q23 0 46 3.5t46 3.5q13 0 30.5 -3.5t33 -10.5t26 -18.5t10.5 -27.5q0 -13 -7.5 -24 t-19 -19.5t-24.5 -13t-25 -4.5q-20 0 -37.5 8t-37.5 8q-28 0 -55.5 -4t-55.5 -4q-26 -14 -35 -37t-12.5 -48.5t-6.5 -51.5t-16 -45q-8 -11 -9 -18t-1 -17q0 -13 -4 -24t-8.5 -21.5t-8 -20.5t-3.5 -22q0 -7 -7.5 -25t-15.5 -37.5t-13.5 -34.5t-1.5 -16q0 -13 -4.5 -29.5 t-15 -30.5t-27.5 -24t-41 -10q-18 0 -28.5 7.5t-16.5 19t-8 26t-2 29.5q0 24 4.5 31.5t11 12t13.5 12t12 30.5q-2 14 3 27t12 25.5t12.5 25t5.5 25.5q0 26 8.5 46.5t8.5 44.5q0 17 4.5 32.5t10.5 30.5t12.5 30.5t10.5 31.5q-10 10 -25.5 13t-33.5 3q-17 0 -33.5 -1.5 t-29.5 -1.5q-16 0 -32 2t-30 10q-7 -8 -13 -12t-10.5 -7.5t-8.5 -9.5t-7 -18q-4 -12 -6 -25.5t-5.5 -30.5t-10 -38.5t-19.5 -49.5q-6 -13 -8 -27t-3 -28t-2.5 -28t-6.5 -27q-6 -16 -13.5 -29t-14.5 -25t-11.5 -24t-4.5 -25q0 -21 -7.5 -40t-20.5 -33.5t-31 -23.5t-39 -9 q-12 0 -25 3.5t-24 8.5q-3 23 -8.5 46t-5.5 46q0 21 14 51t31 62t31 60.5t14 46.5q0 10 8.5 28t19 39t19 42.5t8.5 39.5t-20 23t-41 5q-10 0 -18 -0.5t-13 -0.5q-15 0 -31.5 1.5t-31 7t-24 16.5t-9.5 30q0 25 15 39t37 20.5t46.5 7.5t42.5 1q17 0 34 -3.5t36 -3.5 q18 0 27.5 13.5t15.5 33t11 41t13 37.5q6 14 12.5 25.5t6.5 26.5q0 11 -9.5 13.5t-19.5 2.5h-23.5t-15.5 -0.5t-16 -0.5h-25q-18 0 -36 3t-32.5 10.5t-23 20.5t-8.5 33q0 16 9 28.5t22.5 21t29 13t29.5 4.5q7 0 23 -2t35.5 -4.5t39.5 -4.5t35 -3q12 0 19 9.5t11.5 22t7.5 26 t7 22.5q2 18 6.5 32t10 28.5t10.5 32t8 41.5q0 13 0.5 29t2.5 32.5t6 31.5t11 25q-4 13 -4 31q0 25 8.5 54.5t24.5 55t38.5 43t51.5 17.5q35 0 53.5 -22t18.5 -56q0 -14 2 -24t0.5 -20.5t-8.5 -25t-24 -38.5l-35 -139q-7 -5 -17.5 -30t-20.5 -55t-18.5 -56.5t-11.5 -34.5 q5 -18 17 -32.5t36 -14.5q14 0 28 7t36 7q17 0 34.5 -1.5t34.5 -1.5q21 0 30.5 10t14 24.5t7 31t8.5 30.5q8 18 13.5 24.5t8.5 11t4.5 11.5t1.5 27q0 15 5 29.5t11.5 29t11.5 29.5t5 31q0 6 -6.5 14t-6.5 17q0 18 5.5 37t5.5 41q0 18 9.5 38.5t25.5 38t35.5 28.5t39.5 11 q22 0 35.5 -15.5t24.5 -31.5l2 -45q1 -20 -5.5 -42t-23.5 -36q0 -20 -6 -38.5t-6 -36.5t-3.5 -28t-10 -21t-15.5 -27t-20 -46q-3 -2 -10.5 -21t-15.5 -42.5t-14.5 -43t-6.5 -22.5q0 -6 8 -10t18 -6t19.5 -3t13.5 -1q17 0 34 3t34 3q11 0 24 -4t23.5 -11t17.5 -16.5t7 -20.5z M705 801q-6 8 -10.5 10t-9.5 2q-13 0 -24 -2t-22 -2q-14 0 -27.5 5t-27.5 5q-20 0 -40 -7t-40 -7q-16 -20 -26 -44t-10 -50q0 -9 -4 -18t-8.5 -18t-8.5 -19t-4 -21q0 -17 8.5 -20t20.5 -3q26 0 53.5 -3t54.5 -3q16 0 31 2t30 8q8 22 16.5 35t16 25t12.5 28.5t5 45.5 q0 14 7 25.5t7 25.5z" />
<glyph unicode="$" horiz-adv-x="1079" d="M477 1413q0 2 -2 11.5t-5 21.5t-5 25t-2 23q0 19 4 38.5t4 37.5q0 11 -5 21.5t-5 21.5q0 10 2 19t2 18t-5 15.5t-11.5 12.5t-11.5 12t-5 15q0 11 10 15t15 12q-3 17 -5.5 35t-2.5 35q0 34 16 57t53 23q36 0 63.5 -21t27.5 -59q0 -34 -5.5 -67.5t-5.5 -68.5q0 -34 2 -67.5 t2 -67.5q0 -29 -8 -57t-8 -57q0 -19 4.5 -27.5t13.5 -10.5t21.5 -1t28.5 1h9.5t9.5 -1h10q19 0 38.5 -4.5t38.5 -10t37 -10.5t34 -7q19 -17 43 -36t44 -39t34 -41.5t14 -43.5q0 -11 -5 -19.5t-5 -19.5q0 -9 3 -18.5t3 -18.5q0 -27 -10 -56t-28.5 -53t-43.5 -39.5t-55 -15.5 q-41 0 -69.5 27.5t-28.5 90.5q0 23 6 47t22 44q2 6 10.5 12.5t18 12.5t17 11t7.5 7q0 3 -7.5 9t-17 13t-18.5 12.5t-12 6.5l-117 37q-13 1 -23 1t-16.5 -9.5t-10 -32.5t-3.5 -68q0 -7 0.5 -10.5t1.5 -6.5t1.5 -6.5t0.5 -11.5q0 -11 -4 -15.5t-8.5 -6.5t-8 -4.5t-3.5 -9.5 q0 -5 11 -16q4 -5 11 -12q2 -38 -4 -72t-6 -69q0 -2 -1 -17t-2 -32q-2 -20 -3 -45q-3 -16 10 -28t36.5 -21t53.5 -16t60.5 -11t58.5 -6.5t47 -2.5q27 -1 59 -16t59.5 -44.5t46.5 -72.5t19 -99v-27.5t-1.5 -36t-5 -34.5t-9.5 -23q6 -9 6 -20q0 -10 -4 -20.5t-8.5 -22t-8 -24 t-3.5 -25.5q0 -10 -2.5 -15t-6.5 -8t-9.5 -5.5t-10.5 -8.5q-7 -8 -10.5 -16t-6.5 -16.5t-7 -16t-13 -13.5q-6 -5 -14.5 -6t-16.5 -4q-19 -7 -33 -16t-28 -17.5t-30 -16t-38 -11.5q-20 -2 -49.5 -8t-57.5 -18.5t-47.5 -32t-19.5 -49.5q0 -56 4 -101.5t4 -99.5q0 -15 4 -29.5 t8.5 -29t8.5 -29.5t4 -30q0 -34 -17.5 -57.5t-46.5 -39.5l-14 3l-33 -3q-17 9 -27 23.5t-15.5 32t-7 37t-1.5 37.5q0 38 1 63.5t5 54.5q2 19 8.5 36t6.5 36q0 20 -8.5 37.5t-8.5 36.5q0 35 -17.5 57.5t-44.5 36.5t-59 22t-61 14.5t-51 13.5t-29 20q-15 21 -32 39.5t-32 37.5 t-27 40t-17 47q-25 31 -25 70q0 25 12 43q-4 9 -4 27q0 19 8 35t20 30t26 26.5t26 24.5l45 -2l37 2q28 -12 50 -35t22 -55q0 -37 -18.5 -56t-40 -30t-40 -20t-18.5 -25q0 -14 14.5 -31.5t34.5 -32.5t41 -25.5t33 -10.5q85 -37 125.5 -36t45.5 25q3 15 4.5 38t3 46.5t4 43 t8.5 27.5q3 4 3 8q0 5 -5 13.5t-5 38.5q0 19 0.5 28.5t1 18.5t1 21.5t0.5 36.5v12q-1 3 -2.5 19.5t-3 34.5t-2.5 33t-1 16q2 15 -14.5 28t-43 23.5t-59 19.5t-62.5 17.5t-54 16t-33 16.5h-19q-10 0 -27.5 16t-35.5 37.5t-32.5 42.5t-18.5 31q-6 14 -7.5 28.5t-1.5 31.5v34 t2 48t8.5 46t20.5 27v20q0 16 5 31t12.5 28.5t15.5 24t14 16.5q5 10 8.5 20.5t12.5 20.5q11 12 36 25t58 24.5t71 19t75 7.5h19.5t17 3.5t12.5 12t6 26.5v1zM588 424q0 -40 -1.5 -79.5t2 -71.5t14.5 -52.5t35 -21.5q17 8 34 15q14 6 31 11.5t32 7.5q22 3 37.5 12.5t28 21.5 l25 24t27.5 20q2 14 9 30.5t14.5 33t13.5 33t6 30.5q0 10 -4 19t-4 18t3 18.5t3 18.5q0 12 -5 25.5t-13 27t-17.5 25t-17.5 18.5q-10 8 -22 12.5t-24.5 7.5t-25 6.5t-24.5 10.5q-22 5 -52.5 19t-58 21.5t-46.5 1.5t-19 -40q0 -13 0.5 -35t1.5 -43t1.5 -36.5t0.5 -16.5 t2.5 -8.5t5.5 -18t5.5 -22.5t2.5 -22q0 -5 -0.5 -9t-0.5 -12zM502 1239q0 14 -5 20.5t-31 6.5q-52 -1 -87 -7t-57.5 -16t-35 -21t-20 -21t-11.5 -17.5t-10 -9.5v-13q0 -9 -4 -15t-9.5 -11.5t-11.5 -11t-10 -13.5q-5 -9 -6.5 -19t-4.5 -19.5t-8 -18t-15 -13.5q4 -21 13 -41.5 t9 -43.5v-7q6 -11 21 -26.5t33.5 -30t37 -25.5t31.5 -14l156 -34q9 -7 14 3t7 28.5t1.5 42t-1.5 43t-2 31.5t-1 7q0 13 -1.5 30l-3 34t-3 32t-1.5 25q0 2 3 13.5t6 25t6 26t3 17.5t-1 23t-1 40z" />
<glyph unicode="%" horiz-adv-x="1366" d="M1313 1687q0 -18 -7.5 -29.5t-7.5 -29.5q0 -7 1 -10q-12 -20 -27.5 -38l-31 -36t-29.5 -37.5t-23 -42.5q-14 -10 -24.5 -23.5t-20.5 -28t-20 -28t-23 -24.5q-5 -21 -9.5 -38.5t-11 -32.5t-16.5 -29.5t-26 -30.5q-25 -26 -41 -57.5t-30.5 -64t-31.5 -63.5t-43 -55 q-20 -18 -28.5 -35t-14 -31.5t-11 -26.5t-19.5 -20q-4 -24 -15 -45.5t-26 -40.5q2 -4 2 -9q0 -11 -3.5 -20.5t-8 -18.5t-8 -18.5t-3.5 -19.5q0 -8 3 -15t3 -15q0 -30 -21 -49t-42 -33q-26 -18 -40 -37t-23 -39.5t-17 -41.5t-23 -42q-8 -12 -15 -21.5t-13 -21.5 q-14 -26 -23.5 -54.5t-30.5 -49.5v-7q0 -10 -3 -16.5t-7 -11.5t-8 -10.5t-6 -12.5v-12q-1 -12 -2.5 -17.5t-3.5 -10t-6 -8.5t-11 -13q-10 -12 -13 -26t-9 -25q-12 -24 -25 -38.5t-23.5 -28t-17 -30.5t-6.5 -47v-8q-9 -9 -21 -29.5t-24.5 -47t-25 -56.5t-22.5 -58.5 t-17.5 -52t-10.5 -37.5q-20 -22 -41.5 -41.5t-54.5 -19.5q-9 0 -18 1t-17 1q-7 10 -16.5 19t-18 18t-14.5 19t-6 24q0 9 3 16.5t6 13.5l6 12t3 13v6q9 18 22 35t25 34.5t21 36.5t10 40q16 15 30 33t30 32q3 19 14 31.5t22 28.5q19 28 31 59.5t23 63.5t24 64t35 61 q9 12 11.5 19.5t5 14.5t9 14t23.5 19q2 23 12 42.5t23 37.5l26 36t21 38q12 26 23 58t28 54q9 11 15 17t10.5 12t7.5 14t6 23q4 18 8 30t9.5 22t13.5 19t20 21q23 22 30 35t11.5 25t12.5 26.5t33 40.5q8 9 13 19.5t8 22t6.5 23.5t8.5 23q9 20 25 50t32 58t27.5 49.5 t11.5 24.5q0 8 -1 11q15 23 31.5 43.5t31.5 42.5v10q0 21 8.5 33.5t18 23.5t18 22t8.5 29q-38 -8 -70.5 -25.5t-64.5 -37.5q-42 -26 -88.5 -36.5t-91.5 -27.5q-6 -6 -6 -16q0 -20 10.5 -40t15.5 -40q-12 -17 -15 -37.5t-3 -41.5v-31q0 -25 -4.5 -48t-22.5 -41v-8 q0 -16 -4.5 -25.5t-11.5 -16t-17 -12.5t-20 -15q-22 -20 -40 -41.5t-37.5 -39.5t-43.5 -30t-57 -12q-32 0 -63.5 -9.5t-63.5 -9.5q-23 0 -32 5.5t-25 19.5q-14 13 -29.5 21t-28.5 22q-10 11 -19 33t-15.5 47t-10.5 49t-4 39q0 43 4.5 69t12.5 47.5t19.5 44t25.5 58.5 q8 22 13 43.5t19 40.5q13 15 38.5 32t54.5 30.5t58 22.5t50 9q15 0 29 -3.5t28.5 -7.5t29.5 -7.5t30 -3.5q11 0 24.5 9.5t24.5 14.5h14q14 0 41 9t60 23t68.5 32t66.5 36.5t53 35.5t29 30q22 18 36.5 45t34.5 47q15 15 35 22t39 12t35 13.5t24 26.5q9 21 16 34.5t17.5 22 t26 12t39.5 3.5q14 0 31.5 -9.5t33.5 -24t26.5 -31.5t10.5 -32zM1207 409q0 -21 -1 -42.5t-1 -43.5q-10 -11 -16 -25l-12 -28t-13.5 -27.5t-20.5 -23.5q-4 -21 -14 -38t-24 -31.5t-30.5 -27t-33.5 -24.5h-5q-18 0 -35 -6t-34.5 -13.5t-35.5 -13.5t-38 -6q-33 0 -62.5 11 t-55 29.5t-46.5 43t-38 51.5q0 10 1 19t1 18q0 23 -7.5 46t-7.5 46q0 14 4 27t9.5 26t9.5 26t4 28q0 12 2.5 19.5t7 13.5t9.5 12t10 14q20 32 43 66.5t51.5 63t63 47t77.5 18.5q26 0 50.5 -5.5t49.5 -5.5q12 0 15 1q33 -23 56.5 -52.5t38 -64t21.5 -72t7 -76.5zM545 1104 q0 28 -6.5 56t-21.5 52q-11 6 -24 8.5t-26 2.5q-38 0 -75 -17.5t-62 -46.5q-3 -27 -14 -46t-22.5 -39t-21 -46t-9.5 -68q0 -19 5 -37.5t15.5 -32.5t26.5 -23t39 -9q14 0 27.5 6.5t27.5 15t28.5 15.5t30.5 8q6 11 14.5 20.5t14.5 20.5q0 18 4 29q26 26 37.5 61t11.5 70z M1102 444q0 29 -13.5 54.5t-29.5 48.5q-17 5 -33.5 16.5t-33.5 11.5q-12 0 -23 -5t-21.5 -11.5t-21.5 -13t-22 -9.5q-13 -21 -37 -34q-5 -25 -17 -42t-25 -37.5t-22.5 -48.5t-9.5 -75q0 -17 6.5 -36t17.5 -34.5t27 -26t35 -10.5q24 0 42 3.5t33.5 10.5t31.5 16.5t36 21.5 q7 27 24 48.5t36 41.5q-2 2 -2 8q0 15 3.5 27t7.5 24t7.5 24.5t3.5 26.5z" />
<glyph unicode="&#x26;" horiz-adv-x="1385" d="M1319 287q0 -38 -11 -75.5t-28.5 -70.5t-38.5 -59.5t-40 -41.5h-24q-10 0 -19 -7.5t-19 -16.5q-18 -5 -37 -7.5t-39 -2.5q-71 0 -128.5 32.5t-105.5 79.5q-18 -10 -39 -21t-39 -19l-13 -6h1q-10 -5 -18.5 -11.5t-15.5 -12.5q-22 -20 -45 -28t-46 -11t-45.5 -4t-43.5 -7 l1 1l-25 13l-11 -6q-4 -2 -3 -4.5t3 -5t3 -4.5t-2 -2q-15 0 -28 6t-28 6q-14 0 -28.5 -2t-28.5 -2q-17 0 -31.5 6t-28.5 13t-27.5 13t-27.5 6q-11 0 -26.5 10.5t-30.5 25.5t-26.5 31.5t-13.5 28.5q-11 6 -21.5 12.5t-20.5 14.5l-5 17v-1q-5 15 -9 31.5t-5 36.5 q-20 26 -28 57t-8 63q0 39 14 70q-4 8 -8.5 15t-9.5 15q5 51 23 99.5t48 88t72 69t96 43.5q25 7 44 14.5t35.5 16.5t31 19t29.5 23q-1 20 -8 32.5t-16 27.5q-6 9 -14.5 27t-17.5 37t-18.5 36t-16.5 25l-9 9q-11 10 -19 20q-3 5 -7.5 21.5t-8 36t-6.5 37t-3 24.5q0 51 11 77 t26.5 43t33 33.5t31.5 49.5q24 18 54.5 29t64 17.5t68 10.5t66.5 7l61 6q18 -5 38 -19t38.5 -34.5t35.5 -45t30 -48.5t20.5 -46t7.5 -38q0 -20 -3.5 -46.5t-9.5 -53.5t-15 -52t-20 -41q-4 -5 -6.5 -11.5t-4.5 -11.5h1q-4 -12 -9 -23t-16 -17q-20 -10 -25 -18.5t-7 -17 t-8 -17.5t-28 -21q-14 -9 -24 -15t-20 -11.5t-21.5 -10.5t-27.5 -11v-1q-2 -11 -4.5 -19t-10.5 -16q7 -13 18 -34.5t16 -35.5l7 -19v1q3 -11 10 -18.5t15 -15.5l10 -11q13 -19 18 -36t7.5 -33t5 -30t10.5 -26v1q5 -8 15 -23.5t21 -32.5t22.5 -32.5t20.5 -22.5q9 12 11 22.5 t2 21t0.5 23.5t6.5 30h-1q1 3 3.5 3.5t5.5 0t5.5 -0.5t3.5 2v13q2 2 -0.5 7.5t-2.5 4.5v-1q3 6 7.5 25.5t9 43t8 44t4.5 27.5q5 6 7 14.5t2.5 18.5t2 19.5t4.5 15.5q14 26 28 42.5t38 32.5q28 14 40.5 24.5t25 17.5t33 10.5t64.5 3.5q33 0 58 -3t44.5 -15t35 -36t29.5 -66 l-1 1q7 -17 7 -34q0 -15 -1.5 -24.5t-4.5 -15.5t-8 -10t-11 -9q-16 -12 -21.5 -23.5t-10 -19.5t-13 -13t-30.5 -5q-24 0 -49.5 9.5t-47.5 21.5t-37.5 21.5t-18.5 9.5q-21 0 -42 -24.5t-39.5 -58t-32 -67.5t-19.5 -52q4 -11 4 -26q0 -19 -1 -32t-3.5 -25.5t-6 -27t-7.5 -35.5 q1 -5 4.5 -15t8 -20.5t9 -20t6.5 -13.5v1q6 -11 11.5 -22t7.5 -25q25 -17 51.5 -27.5t58.5 -10.5q49 0 78 35q5 18 8 44.5t11.5 52t27 43.5t54.5 18q47 0 63 -22t16 -66zM735 1210v-1q-10 17 -20 33t-23 28.5t-30 20t-39 7.5t-47.5 -9t-47.5 -24.5t-37 -35.5t-15 -42v-6 q0 -27 10.5 -53t10.5 -53v-3q12 -14 19.5 -41.5t16 -55t20 -48t32.5 -20.5q11 0 19.5 7t16.5 15l3 3q7 8 14.5 20l15 24t16 21.5t17.5 13.5q7 21 16 42t18 43.5t16 45t10 46.5zM639 213q19 7 39.5 15.5t37 18.5t27 21.5t10.5 25.5q-3 21 -23 39l-10 9q-11 12 -18 25.5 t-14 28t-15 30.5t-20 33q-5 29 -17.5 54.5t-27 49.5t-28 46.5t-21.5 46.5l-7 21l-6 18t-7.5 16t-13 11.5t-21.5 4.5q-24 0 -46 -9t-43 -20.5t-42.5 -22t-43.5 -14.5q-33 -13 -46 -30t-18 -36t-7.5 -38.5t-14.5 -35.5v1q-6 -11 -12.5 -19t-13.5 -18q0 -3 -7.5 -5.5t-17 -6 t-17.5 -9t-9 -14.5q3 -19 11.5 -26t17 -8.5t15.5 -0.5t7 -3q0 -17 5.5 -33.5t11.5 -32.5t11.5 -30.5t5.5 -27.5v-1q4 -4 8.5 -7t8.5 -8h-1q26 -29 53 -53t61 -37q10 1 23 1h24t23 -0.5t24 -0.5h96q12 8 30 15.5t38 15.5zM815 153q0 16 -6.5 28t-23.5 14q0 -4 -0.5 -7.5 t-0.5 -7.5q0 -16 -1 -25t16 -11q0 4 8 4.5t8 4.5z" />
<glyph unicode="'" horiz-adv-x="402" d="M219 920q-18 0 -32 15t-23 35t-12 40t2 31q-3 2 -4 9t-2 15t-1 15.5v11.5q0 7 5.5 9t10.5 10q4 7 -1.5 13.5t-14 11t-17 8t-8.5 4.5q3 24 0 44.5t-7.5 38t-8.5 31.5t-4 26q0 16 -2 35.5t-1.5 38t5 34.5t17.5 26q10 7 28 11.5t38 5t39 -2t30 -9.5q18 -11 25.5 -26 t9.5 -31.5t0.5 -32.5t-1.5 -28q0 -24 -6.5 -48t-6.5 -48q0 -22 -1 -39.5t-1 -39.5q0 -19 -7 -46.5t-7 -46.5q0 -12 -1 -30.5t-5 -37t-12.5 -33.5t-23.5 -20z" />
<glyph unicode="(" horiz-adv-x="572" d="M496 1479q0 -21 -6 -36t-15.5 -27.5t-20 -24t-19.5 -25.5q-13 -19 -21.5 -40.5t-16 -43.5t-16 -43.5t-22.5 -40.5q-21 -25 -33 -55t-17.5 -62t-7 -65t-1.5 -65q0 -11 -2 -36t-5.5 -54t-8.5 -56.5t-11 -42.5l-12 -27q-3 -14 -3 -26q0 -17 2.5 -34t2.5 -34q0 -25 -9 -47 t-9 -47q0 -12 5 -21.5t11 -19.5t11 -21t5 -26q0 -16 -2 -31t-2 -29q0 -30 7 -46.5t16.5 -28t18.5 -23.5t13 -33q5 -18 4.5 -35.5t2.5 -35.5q2 -15 7 -28.5l10 -27t9 -28t4 -29.5q0 -8 5 -16.5t12 -16t14.5 -14.5t11.5 -12q9 -12 11.5 -25.5t4 -27t5 -27t14.5 -25.5 q5 -3 9 -6t6 -8l6 -15q0 -7 -7.5 -13.5t-17.5 -11.5t-20.5 -8t-16.5 -3q-2 0 -12.5 10t-22.5 22.5t-23.5 24.5t-15.5 16q-3 20 -7 28.5t-13 25.5q-6 12 -7.5 25.5t-4.5 27.5q-5 23 -18.5 41.5t-24.5 38.5q-17 32 -27.5 68t-19.5 71q-6 24 -12.5 36.5t-12 24t-9 27t-3.5 45.5 q0 12 -4 24.5t-4 24.5q0 8 3 16.5t3 16.5q0 15 -5.5 28t-7.5 27q-5 26 -7 51.5l-4 51t-6.5 50t-14.5 48.5q0 14 5 26.5t5 26.5q0 29 -9.5 57.5t-9.5 57.5q0 11 8.5 28t18.5 36t18.5 37.5t8.5 33.5q0 9 -3 17.5t-3 17.5q0 12 5 21.5t11 18.5t11 18.5t5 21.5t-4 24.5t-4 24.5 q16 6 27.5 19t11.5 30q0 9 -3 18.5t-3 18.5q0 11 4 27t9.5 33t12 33t11.5 26q8 15 10 31t10 32q9 20 25 36.5t36 28.5t42.5 18.5t44.5 6.5q34 0 53.5 -18.5t19.5 -52.5z" />
<glyph unicode=")" horiz-adv-x="577" d="M468 760q0 -26 -10 -49t-10 -49q0 -14 5 -25.5t5 -24.5q0 -11 -6.5 -46.5t-15.5 -76t-18 -75t-13 -43.5q-10 -18 -22.5 -32t-12.5 -34q0 -11 3 -20.5t3 -20.5q0 -9 -6 -18t-12.5 -19t-12.5 -21.5t-6 -25.5q0 -8 2 -14t4 -14q-16 -13 -23 -25t-10 -24t-4.5 -24.5 t-5.5 -25.5q-4 -18 -19.5 -47t-36.5 -56.5t-44.5 -48t-44.5 -20.5q-14 0 -27.5 5.5t-24.5 15t-17.5 22t-6.5 27.5q0 28 16 50t37 44t41 46t27 56q4 19 7.5 30t8 19t10.5 16.5t15 23.5q28 55 40.5 119.5t12.5 127.5q0 25 6 48.5t12.5 47t12.5 47t6 48.5q0 34 -3 71t-15 68 q-4 8 -7.5 14.5t-3.5 14.5q0 15 6.5 29.5t6.5 29.5q0 14 -7 26.5t-10 24.5q-10 27 -12 55.5t-5 56t-13 52.5t-37 45q-2 3 -2 6.5v6.5v10q0 15 -7.5 28.5t-7.5 28.5q0 23 -12.5 39t-26.5 33q-12 14 -17 31t-13 32q-10 17 -22.5 31t-23 29t-17.5 34t-7 46q0 17 8.5 28.5 t21.5 18t28.5 9.5t29.5 3q32 0 53 -13.5t37 -34.5t28.5 -46t26.5 -47q10 -17 22.5 -32.5t23.5 -32.5t18.5 -35.5t7.5 -41.5q0 -18 5.5 -34t13.5 -33q33 -79 43 -162t10 -168q0 -11 -0.5 -21.5t-0.5 -21.5q0 -25 7.5 -48.5t7.5 -43.5z" />
<glyph unicode="*" horiz-adv-x="1071" d="M811 668q0 -21 -4.5 -33.5t-12.5 -21t-21 -15l-29 -14.5q-10 -5 -19.5 -11t-21.5 -6t-26 13t-26.5 31t-22.5 36t-13 27q-5 15 -5 31.5t-3 31.5q-4 18 -11.5 41t-13.5 45t-7.5 40t5.5 27l13 16q-3 4 -9.5 4.5t-14 -1t-14 -3.5t-9.5 -2q-14 0 -28 -20.5t-25 -44.5 t-18 -44.5t-8 -20.5q0 -12 -4.5 -21t-11 -17.5l-13 -17t-10.5 -18.5q-3 -8 -3 -16t-3 -14q-3 -8 -9 -13.5t-11 -11.5q-9 -14 -14.5 -23.5t-12.5 -15t-17.5 -8t-29.5 -2.5q-20 0 -35 9t-25.5 23.5t-16 32t-5.5 35.5q0 17 2 25t6.5 13t11 10t15.5 16q6 6 8.5 14t7.5 14 q9 11 21 17t20 18q7 10 11 20t12 19q7 8 15.5 11.5t15.5 11.5q6 7 10.5 19t8 24t5 21.5t1.5 12.5q0 12 -6 14t-11 2q-28 0 -56.5 -7t-57 -15t-57.5 -15t-59 -7q-18 0 -36.5 6.5t-33.5 18t-24.5 27.5t-9.5 36q0 40 22 65t64 25q19 0 36 -8t36 -8q11 0 22 2t23 2 q30 0 63.5 -6.5t54.5 -6.5q16 0 24 3.5t8 14.5q0 8 -5.5 21t-19.5 33q-6 8 -15.5 13.5t-17.5 13.5q-9 9 -25 32.5t-31.5 49.5t-26.5 51t-11 37q0 38 17.5 64t62.5 26q44 0 65 -20t31.5 -49.5t17 -63.5t21.5 -62q5 -10 12 -15.5t10 -16.5q5 -8 4.5 -16.5t1.5 -16.5 q4 -21 14 -34t23 -13q11 0 21.5 10.5t18.5 34.5q7 31 22.5 66t35 67t41 59t41.5 41q1 -1 0 -3.5t-0.5 -6t3.5 -7t11 -4.5q3 -1 3.5 2.5t0.5 8v8.5t3 4q31 0 49.5 -18t18.5 -47q0 -16 -2.5 -38t-8.5 -36q-5 -11 -22 -21t-25 -20q-7 -8 -8.5 -16.5t-7.5 -16.5q-8 -11 -20 -15 t-17 -13q-6 -10 -7 -20t-7 -19q-5 -7 -13 -13t-15.5 -11.5t-13.5 -10.5t-6 -10q0 -8 11 -10.5t25 -2.5q17 0 32 2t18 2h39q22 0 43 3.5t42 8t41.5 8t41.5 3.5q15 0 28 -6.5t22.5 -17.5t15.5 -24.5t6 -27.5q0 -15 -8 -29t-20.5 -25.5t-27.5 -18.5t-30 -7q-25 0 -48 7.5 t-46 7.5q-19 0 -37 -3t-37 -3t-40 5t-35 5q-22 0 -22 -10q0 -5 5 -12t11.5 -14.5t13 -16t10.5 -15.5q6 -12 8 -26.5t8 -26.5q12 -27 29 -46t32 -38t26 -41.5t11 -56.5z" />
<glyph unicode="+" horiz-adv-x="1016" d="M952 731q0 -35 -22 -51t-54 -16q-15 0 -29.5 7t-31.5 7q-18 0 -35.5 -3t-33.5 -6.5t-29 -6.5t-21 -3q-13 0 -24 2.5t-23 2.5q-14 0 -23.5 -11t-15.5 -26.5t-9 -32t-3 -27.5q0 -13 3.5 -23l7 -20t7 -23t3.5 -32q0 -12 -0.5 -24t-0.5 -23q0 -19 4 -37.5t4 -38.5 q0 -18 -9 -32.5t-23.5 -24t-31.5 -14.5t-32 -5q-12 0 -26 4t-27 11t-21.5 17t-8.5 22q0 7 1.5 13t1.5 13q0 11 -4 21.5t-4 21.5q0 20 5 39t7 39q4 32 4 64.5v64.5q0 10 -3.5 25t-10.5 28.5t-17.5 23t-23.5 9.5q-12 0 -24 -4.5t-24 -10t-24 -10t-24 -4.5q-6 0 -12.5 4.5 t-14.5 4.5q-20 0 -40 -7.5t-42 -7.5q-15 0 -38.5 4.5t-45.5 13.5t-37.5 23.5t-15.5 34.5q0 18 12 33.5t29.5 27t37.5 17.5t36 6q31 0 61.5 -10t61.5 -10q24 0 47.5 7t46.5 7q11 0 20 -4t19 -4q7 0 16 7t16 16.5t12 20t5 17.5q0 9 -6 18.5t-6 20.5q0 9 4 17.5t4 17.5 q0 8 -4 13.5t-9.5 11t-9.5 10.5t-4 12q0 9 7 16t7 17q0 12 -7 23t-7 28q0 12 3.5 26.5t10.5 27t18 20.5t25 8q27 0 44 -9t27 -24t13.5 -35.5t3.5 -42.5q0 -9 -4 -18t-4 -19q0 -9 5.5 -16t5.5 -18q0 -16 -7.5 -30t-7.5 -30q0 -31 10.5 -58.5t22.5 -53.5l6 -3q11 0 23 4.5 t24 4.5q20 0 40 -4.5t42 -4.5t42 6.5t42 6.5q7 0 23 -2.5t34 -6.5t33 -9.5t19 -10.5q6 -8 7 -20.5t1 -20.5z" />
<glyph unicode="," horiz-adv-x="689" d="M593 203q-14 -16 -22 -37t-8 -43q0 -5 0.5 -10t1.5 -10q-4 -15 -11 -31t-14 -32.5t-12 -32.5t-6 -32q-12 -20 -29 -28q-4 -16 -5 -30t-1 -30q0 -18 -10.5 -25t-23.5 -12t-24.5 -12.5t-14.5 -25.5q-2 -9 -11 -24t-21 -31t-24 -31t-18 -23q-14 -18 -26 -33.5t-25.5 -28 t-30.5 -20.5t-41 -10q-14 -2 -27.5 -7.5t-25.5 -5.5q-19 0 -28.5 10t-14.5 23t-9.5 25.5t-14.5 16.5q-5 2 -11 5t-6 9t7 17t9 20q-4 8 -4 15q0 9 5.5 11.5t13 4.5t15 6t11.5 15q7 20 24 34.5t37.5 28t43 27t40.5 31t30 41t12 55.5v11.5t-0.5 18t-1.5 16.5t-2 7q-18 0 -35 -8 t-36 -8q-10 0 -27 13t-36 30.5t-36 34t-27 24.5v15v9q0 37 -7.5 73.5t-7.5 74.5q0 28 6.5 48.5t15 36t15 28.5t6.5 28q8 -2 13 -2q6 0 15 6t17.5 13.5t16 15l10.5 10.5q11 5 22.5 5h22.5q12 0 22.5 3.5l21 7l21 7t23.5 3.5q24 0 47.5 -5t47.5 -7q7 -9 10.5 -19t8 -18.5 t11 -14.5t20.5 -6q2 0 3.5 0.5t3.5 0.5q-3 -10 -12.5 -22.5t-9.5 -20.5q0 -11 11.5 -25t22.5 -14q6 0 11.5 3t11.5 3q3 0 5 -3.5t3.5 -8t4.5 -8t9 -3.5v-4q0 -16 -9 -20t-20 -5q1 -10 8.5 -13.5t16 -6t15 -7.5t6.5 -18q0 -11 -3 -21t-3 -21q0 -9 3.5 -17t13.5 -10z" />
<glyph unicode="-" horiz-adv-x="1303" d="M1172 639q-8 -20 -23 -33t-26 -28q-12 -2 -31.5 -3.5t-31.5 -13.5q-26 9 -55.5 11.5t-59.5 5t-58.5 8t-52.5 20.5q-27 -15 -58 -15q-19 0 -37 4.5t-34 10.5q-24 -2 -46.5 -3t-43.5 -1q-27 0 -52 1t-50 1q-38 0 -75.5 -3t-82.5 -13q-3 1 -3 6q0 3 1 6.5t1 6.5q0 10 -20 10 q-12 0 -15.5 -8t-8.5 -15q-17 3 -31 3q-15 0 -30.5 -2.5t-34.5 -6.5q-26 10 -42 29t-25.5 43t-13 50.5t-3.5 52.5v17q8 6 19 9t22.5 5.5t22 6.5t16.5 12q15 -16 37 -20.5t46.5 -6t49.5 -4t47 -14.5q22 11 43 14t41 3q17 0 33 -1t32 -1q19 0 37 3q10 -9 25.5 -12.5t34.5 -3.5 q26 0 53.5 5t48.5 11q14 -9 29 -12.5t30 -3.5q31 0 63.5 8.5t66.5 8.5q32 0 61 -13q5 13 13.5 21t19.5 14q19 -9 41.5 -15.5t42.5 -15t35.5 -21t21.5 -34.5q-3 -10 -8 -10t-10 3t-13 3h-4q0 -8 5 -10.5t11.5 -3.5t12 -2t6.5 -7q-1 -4 -1 -7.5v-6.5q0 -26 11 -43zM259 758 q-2 0 -3 0.5t-3 0.5q-11 0 -19 -10t-8 -20q0 -6 4 -10.5t13 -5.5q7 1 9 6.5t2.5 12t1 14t3.5 12.5z" />
<glyph unicode="." horiz-adv-x="716" d="M610 246q0 -36 -17.5 -55t-39 -30t-39.5 -18.5t-18 -21.5l6 -8q4 0 15.5 -1.5t23 -4.5t20.5 -7t9 -9q-1 -4 -4 -6.5t-6 -4.5q-8 -6 -15 -7t-12 -2.5t-9 -6t-7 -18.5q-3 -12 -11 -17.5t-16.5 -9t-15.5 -7.5t-7 -13v-2q-23 17 -51 17q-29 0 -57 -9.5t-57 -9.5q-24 0 -52 14 t-52 35.5t-40 48t-16 52.5q0 7 3.5 12.5t8.5 10.5q-5 13 -12 17t-13.5 6t-11 6.5t-4.5 18.5q0 20 -2.5 38.5t-2.5 37.5q0 11 1.5 22t6 19.5t12.5 14t21 5.5h5q-8 11 -13 24.5t-5 27.5q0 2 0.5 4.5t3.5 2.5q5 0 9.5 -2.5t9.5 -3.5l9 4q5 5 5 10t-3 8t-4 8q4 5 11.5 6.5 l12.5 2.5q13 3 17.5 7t5.5 9.5t2.5 10.5t9.5 9q6 3 23 6t36.5 6t38 5t26.5 3q6 -11 24.5 -16.5t42.5 -8.5t51 -6t49.5 -10t37 -20t14.5 -35l-1 -9l-4 -1q-11 0 -20 7t-20 7q-5 7 -18 -2.5t-24 -22t-15 -23t10 -5.5q7 2 13.5 6.5t14.5 4.5q4 0 10 -5.5t14.5 -11.5t18.5 -11.5 t24 -5.5q13 0 25 6q4 -23 9 -46t5 -47zM457 193q-6 12 -18 17l1 -2q0 -4 -4.5 -7.5t-10.5 -6.5t-10.5 -6t-4.5 -5q0 -3 6 -4t8 -1q7 0 20 3.5t13 11.5zM382 239q-16 -1 -31.5 -4.5t-32.5 -3.5t-36 8v-43q9 5 18 6.5t19 1.5h21q35 0 42 35zM240 120v3q0 12 -6.5 18t-15.5 10 t-19 7.5t-17 9.5q3 -56 57 -57z" />
<glyph unicode="/" horiz-adv-x="1141" d="M1097 1483q0 -16 -7 -27.5t-18.5 -19.5t-26 -14t-29.5 -11q2 -8 3 -15.5t1 -15.5q0 -36 -23.5 -68t-52.5 -58q-4 -15 -10 -29.5t-14 -28.5v1q-8 -16 -14 -32t-13 -31t-16.5 -27.5t-25.5 -20.5q-17 -30 -34.5 -60.5t-38.5 -61.5q1 -2 2 -4.5t1 -6.5q0 -16 -7.5 -28 t-17.5 -23v1q-6 -8 -11.5 -15t-7.5 -16q-25 -22 -37 -42t-21.5 -39.5t-21.5 -39t-38 -41.5v-7q0 -12 -7.5 -30t-18.5 -36.5t-24 -35.5t-23 -27v-2q0 -31 -20 -59t-45 -51q-8 -7 -12 -16t-8 -18.5t-9 -19t-14 -16.5q-3 -25 -9 -44t-13.5 -36.5t-17 -34.5t-21.5 -37l-10 -15 q-2 -12 -15.5 -35.5t-31 -49.5t-35.5 -50.5t-30 -37.5q-2 -11 -10.5 -33.5t-22.5 -45t-34 -39.5t-46 -17q-21 0 -38.5 9.5t-29.5 24t-18.5 31.5t-6.5 33q0 29 15 52t34 44q24 28 38 51.5t34 40.5q7 8 13.5 18t15.5 24.5t22 34.5t33 48q25 33 43.5 60t33.5 52.5t28.5 52 t27.5 58.5q11 25 28 51.5t34 51t31.5 47.5t20.5 42h-1q3 10 5.5 19.5t9.5 20.5v-1q11 19 17 26v-1q6 8 10.5 15t4.5 17v11q9 7 22 26.5t24.5 42t20 44t8.5 32.5q30 26 45.5 58t26.5 62q14 40 32.5 73.5t39.5 69.5l9 17q4 6 9.5 11.5l11.5 11.5q2 2 12 17t21.5 36t22 44.5 t12.5 42.5q7 4 15.5 15.5t15.5 24.5t12 25t5 18q19 6 24.5 10t10.5 7h-1q10 7 21.5 12t36.5 5q38 0 65.5 -19t27.5 -53z" />
<glyph unicode="0" horiz-adv-x="1251" d="M1146 603q0 -11 -5.5 -17.5t-15.5 -6.5t-19 4.5t-20 4.5q-2 -3 -3.5 -6t-1.5 -7q0 -7 5.5 -7.5t11.5 -1t11.5 -3.5t5.5 -14t-3 -34t-8.5 -48t-12 -46t-13.5 -28q-9 -10 -14 -18.5t-4 -21.5l1 -26q1 -17 -4.5 -26.5t-12 -17t-11.5 -14t-5 -16.5q0 -5 1 -8q-13 5 -26 8.5 t-27 3.5q-15 0 -27 -6t-19 -20q0 -5 2 -10t8 -5q10 0 18 8t18 8q7 0 9 -7t2 -12q0 -13 -4 -22t-19 -9q-9 0 -17.5 2t-17.5 2l-8 -6q6 -17 23 -20q-24 -27 -55.5 -55t-67.5 -51t-75 -37.5t-76 -14.5q-24 0 -65.5 7t-85.5 17.5t-83.5 24t-59.5 27.5q-13 9 -14.5 15t-2.5 10.5 t-6 9t-24 9.5q-42 12 -61 29t-27 35.5t-10 36t-11 29.5t-19 25t-19 27t-15 28.5t-6 30.5q0 12 9.5 19.5t9.5 16.5q0 3 -2 6t-4 5q-11 12 -18 21t-11 19t-6.5 21.5t-3.5 27.5q-3 32 -12.5 63.5t-9.5 63.5q0 25 1 50t1 50q0 23 5.5 45.5t5.5 44.5q0 16 -2.5 31t-2.5 31 q0 37 10.5 72.5t22.5 71t22.5 71.5t10.5 74q0 10 -1 20t-1 21q0 19 7.5 25t16 7.5t16 3.5t7.5 14q0 7 -1.5 13.5t-1.5 13.5q0 8 10.5 17.5t24 20.5t26.5 22.5t18 24.5q5 12 16.5 16t23 6.5t20.5 6t9 15.5q0 6 -3 15q15 -7 31 -9.5t33 -2.5q22 0 36.5 6t26.5 13.5t25.5 14 t33.5 6.5q26 0 50 8.5t50 8.5q12 0 44 -7t65.5 -18t60 -24t28.5 -25q7 2 13 2h12q17 0 30.5 -4t25 -10t23 -14t24.5 -16l1 -6l1 -5q0 -13 -6.5 -24t-9.5 -23q3 -9 11 -13l16 -8t15 -9t8 -16t4.5 -17.5t17.5 -7.5l-1 -21v-10q0 -35 11.5 -60t26 -45t26 -38.5t11.5 -39.5 q0 -20 -9.5 -37.5t-9.5 -33.5q0 -6 7 -16.5t15 -24.5t15 -30.5t7 -35.5q0 -33 -28 -50q-2 -6 -2 -10q0 -9 5 -14t10.5 -9t10.5 -10t5 -18t-4.5 -21t-10 -16.5t-10 -14t-4.5 -13.5q0 -9 5 -15.5t10.5 -13t10.5 -13.5t5 -16zM1117 822q0 11 -9 15t-17 4q-20 0 -20 -18 q0 -9 7.5 -13t15.5 -4t15.5 4t7.5 12zM1008 730q0 20 -7.5 37.5t-7.5 37.5q0 23 2 45t2 45q0 15 3.5 29t3.5 28q0 16 -9.5 43t-22.5 56.5t-26.5 56.5t-20.5 44q-1 1 -3 6.5t-5 11t-5.5 10t-4.5 4.5q-1 -2 -5 -2q-3 0 -19.5 13t-35 32.5t-33 41t-14.5 39.5q0 5 1 7 q-14 0 -33.5 3.5t-39 10.5t-35 18t-20.5 25q-25 -3 -48.5 -10.5t-46.5 -15t-47 -13.5t-49 -6q-6 0 -11.5 0.5t-11.5 1.5q3 -6 3 -13q0 -11 -8 -13.5t-19 -2.5q-8 0 -14.5 0.5t-11.5 0.5l-7 -1l1 -9v-4q0 -12 -6.5 -20t-15.5 -14t-19 -11.5t-17 -12.5q12 -2 12 -15 q0 -17 -13 -41.5t-28.5 -56t-28.5 -68t-13 -76.5q-3 -5 -8 -8.5t-11 -3.5q-8 0 -16 4.5t-17 4.5t-9 -7q0 -11 6.5 -19t15 -17t15 -19t6.5 -24q0 -35 -6.5 -48.5t-14 -20t-13.5 -15t-6 -33.5v-11.5t1 -10.5q-13 -17 -29 -28q15 -5 25 -16.5t16 -24t9 -25.5t3 -21 q0 -30 5.5 -59.5t5.5 -59.5q0 -27 -4.5 -37t-10.5 -13t-10.5 -2.5t-4.5 -5.5q0 -7 5 -7q8 0 17 5t16 9q2 -8 2 -23t0.5 -30t4 -26.5t13.5 -13.5q15 -3 21 -10t9.5 -16t7.5 -18.5t16 -16.5q16 -9 30 -22.5t29 -25.5t31.5 -21.5t36.5 -10.5q35 -3 70.5 -8.5t70.5 -13.5 q13 -4 30 -4q20 0 39.5 5.5t39 12t39.5 12t40 5.5q12 0 26 -3q-1 2 -1 7q0 11 11.5 28.5t27.5 34.5t33 29.5t28 14.5q-3 5 -3.5 11.5t-0.5 12.5q0 15 5 33t20 25q7 3 11.5 12.5t7 22.5t3.5 28.5t1 30.5q0 18 -0.5 33.5t-0.5 23.5v10q15 10 21 29.5t8.5 38.5t3.5 34t5 18 q12 9 12 22zM832 161h-4q-20 0 -33 -13t-22 -31q3 10 13 10q0 -5 -4 -7.5t-9 -2.5q12 0 24 -1.5t24 -1.5q9 0 14 4.5t7 11.5t2 15v15z" />
<glyph unicode="1" horiz-adv-x="1167" d="M1171 76q0 -11 -4 -21t-9 -20q-10 -19 -18.5 -30t-17.5 -16.5t-19.5 -7t-24.5 -1.5h-34q-8 -3 -15 -3q-9 0 -11.5 7.5t-2.5 16.5q0 5 0.5 9.5t0.5 7.5q0 8 -2.5 14t-11.5 6q-15 0 -23.5 -8.5t-16 -18.5t-16.5 -18.5t-26 -8.5q-20 0 -39.5 6t-39.5 8q-41 3 -82 4 t-81.5 2.5t-81 5.5t-80.5 13q-9 2 -18 3t-17 1q-41 0 -80.5 -8.5t-88.5 -8.5q-33 0 -66 -7t-66 -7q-16 0 -37 6.5t-40.5 17.5t-33 27t-13.5 34q0 13 12.5 27.5t29.5 28t34.5 25t27.5 18.5q61 -8 122 -18t123 -10q38 0 60.5 9.5t34 26t15 39t3.5 48.5q0 15 -0.5 30t-0.5 32 q0 156 8.5 310.5t8.5 310.5q0 77 -3.5 153t-14.5 152q-14 3 -26.5 6t-29.5 3q-5 0 -5 -1q-4 4 -9.5 4.5t-10.5 0.5q-23 0 -44 -6.5t-43 -6.5q-6 0 -9.5 2t-7 5t-8 5t-11.5 2q-33 0 -66 -7t-67 -7q-24 0 -47.5 7t-42.5 22q7 15 7 36q0 16 -3 31.5t-4 31.5q7 -3 15 -3 q15 0 28.5 7.5t26.5 17t27 17t29 7.5q30 0 59.5 -9t59.5 -9q17 0 29 6.5t21 6.5q10 0 15.5 -6t16.5 -6q16 0 32.5 6t32.5 12.5t33 12.5t35 6q25 0 49.5 -6t48.5 -6q13 0 25 3h1q-2 -5 -2 -16q0 -14 4.5 -25t10 -23t10 -29t4.5 -43q0 -45 2 -88.5t2 -88.5q0 -23 -3.5 -44.5 t-13.5 -41.5q9 -8 11.5 -18.5t2.5 -22.5v-16q0 -11 2.5 -23t12.5 -20l1 -11q0 -13 -4.5 -23t-9.5 -19t-9.5 -18t-4.5 -20q0 -23 6.5 -46.5t6.5 -49.5q0 -32 -4 -63.5t-9 -63t-9 -63t-4 -63.5q0 -8 -2.5 -13t-7.5 -5q-1 0 -7 2q0 -26 4 -52t8.5 -51.5t8.5 -51.5t4 -53v-14 l-1 -14q0 -53 35 -78t86 -25q34 0 51.5 6.5t26 14.5t13.5 14.5t15 6.5q29 0 59.5 -6.5t59.5 -9.5q15 -2 30 -2t29 -2.5t26 -8.5t22 -21t22.5 -33t12.5 -37z" />
<glyph unicode="2" horiz-adv-x="1175" d="M1107 207q0 -18 -4.5 -39t-19.5 -33q-5 -5 -9.5 -14t-8 -18t-7 -16t-6.5 -7q-4 0 -7.5 1.5t-8.5 2.5l-7 -4q-12 -15 -34 -29.5t-47 -26t-50.5 -18.5t-44.5 -7q-15 0 -25 3.5t-16.5 8t-11 8.5t-10.5 4q-12 0 -23.5 -7.5t-19.5 -7.5q-5 0 -6 5.5t-12 9.5q-17 6 -37.5 18 t-41.5 24.5t-40 22t-32 9.5q-4 0 -19 13t-36 29t-46 29t-50 13q-28 0 -44 -17t-24 -41h-6h-3q-13 0 -23 -8t-16.5 -20t-9.5 -25.5t-3 -25.5q0 -17 2.5 -34.5t2.5 -34.5v-12t-1 -11q-12 3 -25 3t-25 -2.5t-25 -2.5q-20 0 -29 12t-15 28q-8 20 -21 39t-26.5 38t-23 38t-9.5 39 q0 25 2 50t2 51q0 21 10.5 36t23 31t23 36t10.5 51q0 8 4 12.5t9 9.5q11 9 26.5 32t34.5 51t40.5 57t44.5 50q6 6 10 8t9 2t10 -1t12 -1q10 0 14.5 3t7 7.5t4.5 9.5t8 10q10 8 27 7t31 5q10 5 19 11.5t17.5 13t18 12t20.5 8.5q37 10 74 26.5t70.5 39t61.5 51t47 62.5 q3 6 9.5 14t13 16.5t11 17t4.5 14.5t-2 11.5t-2 11.5q0 7 5 10t11 6q10 4 16.5 13t10 19.5t5 22.5t1.5 22t-1.5 22t-5 23t-10.5 20.5t-17 13.5q-3 2 -8.5 4t-5.5 7q0 4 2 7.5t2 7.5q0 7 -7.5 14.5t-18 15t-20.5 15t-14 15.5q-5 8 -24 19.5t-41.5 22t-43.5 18t-30 7.5 q-35 0 -67 -12.5t-66 -19.5q-24 -5 -64 -9.5t-77.5 -15.5t-65 -32t-27.5 -58q0 -17 10 -31.5t25 -29t33 -28.5t33 -30t25 -33.5t10 -38.5q0 -26 -16.5 -44.5t-40 -30.5t-50 -17.5t-47.5 -5.5q-25 0 -46 7q-14 4 -21.5 5.5t-12 4t-6.5 9t-5 21.5q-3 17 -10 30.5t-13.5 27 t-11.5 28t-5 33.5q0 23 11.5 57t28.5 69t36.5 65.5t36.5 46.5q7 7 11 15.5t8.5 16t11.5 12.5t21 5h18q14 0 23 4t14 18q3 9 14 14t24 7t26.5 3t21.5 1q20 1 38.5 6t37.5 11t37.5 10.5t38.5 4.5l16 -1q84 -4 140 -14t98 -34t77 -67t79 -112q10 -17 17.5 -37.5t25.5 -33.5 q-12 -25 -14.5 -51.5t-4.5 -53.5q-1 -18 -4.5 -31.5t-8.5 -25.5t-11.5 -24t-13.5 -28q-5 -11 -7 -18.5t-4.5 -14.5t-7.5 -12.5t-17 -11.5q-12 -7 -17 -16t-8 -18.5t-7.5 -18t-16.5 -12.5q-24 -10 -45.5 -26t-42 -33t-41.5 -32t-46 -21q-28 -7 -53 -21t-49 -29t-48.5 -29 t-52.5 -21q-11 -3 -18 -8.5t-12 -13t-10 -15.5t-12 -15q-11 -11 -20.5 -14t-19.5 -5t-20.5 -7.5t-22.5 -22.5q-6 -9 -16 -14t-19 -10t-15.5 -11.5t-6.5 -18.5q0 -9 -4.5 -15.5t-9.5 -13t-9.5 -13t-4.5 -14.5q0 -5 2 -12t8.5 -14.5t17.5 -12.5t29 -5t36 3t36 3 q15 0 28.5 -4.5t26.5 -9.5t26 -9.5t26 -4.5q25 0 33 27q4 -2 6 -11t3.5 -18.5t3.5 -18t5 -8.5q7 4 10 13.5t13 9.5q6 0 11.5 -6t12 -13t15 -13t20.5 -6q20 0 43.5 -15.5t48.5 -34t50.5 -34t49.5 -15.5q26 0 43.5 11.5t31.5 28.5t25.5 37.5t24.5 37.5t30 28.5t41 11.5 q38 0 49.5 -19.5t11.5 -52.5zM801 1334h-43q4 0 4 -5t-3 -9q-2 2 -2 5q0 1 0.5 1t0.5 1v7l-1 -14q-2 -15 5 -28t24 -15q3 12 9.5 23t6.5 24z" />
<glyph unicode="3" horiz-adv-x="1141" d="M1051 404q0 -33 -2 -46.5t-8.5 -19.5t-18.5 -10.5t-32 -19.5q21 -27 21 -60q0 -35 -20.5 -63.5t-48.5 -48.5q-26 -18 -39.5 -44.5t-26.5 -54.5q-40 -1 -72.5 -16t-63.5 -38q-16 -11 -32 -15t-34 -4t-36.5 2t-36.5 2q-32 0 -63.5 -9.5t-63.5 -9.5q-16 0 -41 4.5t-51 11 t-50.5 14.5t-39.5 15q-31 14 -57.5 36t-56.5 36q-14 37 -34.5 70.5t-51.5 57.5q7 15 9.5 30.5t2.5 32.5q0 29 -5.5 58.5t-5.5 58.5q0 50 27 91l9 -1q17 0 32.5 6.5t32.5 6.5q25 0 48.5 -8t41 -22.5t28 -36t10.5 -48.5q0 -9 -2 -25.5t-7.5 -32.5t-14.5 -27.5t-22 -11.5 q-8 0 -15 4.5t-12 10.5q0 -12 2 -34t7.5 -43.5t15.5 -37.5t26 -15l25 1h7q31 0 63.5 -7t67.5 -7q28 0 55 -4t55 -4q37 0 69 10t60 27.5t53.5 39.5t50.5 46q11 11 11 21q0 5 -1 10t-1 10q0 13 12 28t26 34t26 42t12 52q0 23 -6.5 45.5t-6.5 47.5q0 20 -9.5 36t-21 31.5 t-21 31.5t-9.5 35v8t2 9q-24 6 -55.5 18l-63 24t-59.5 21.5t-43 9.5q-38 0 -75 -8t-75 -8q0 4 7.5 7.5t17.5 8t18 9.5t8 12q0 8 -13.5 14t-19.5 6q-11 0 -20 -4.5t-18 -10.5t-18.5 -10.5t-19.5 -4.5q-8 0 -15 4.5t-12 11.5v-6v-4q0 -17 10 -25t27 -8h6q-12 -19 -26 -32.5 t-38 -13.5q-17 0 -32.5 1.5t-32.5 1.5q4 37 23.5 78.5t48 80t61 72t61.5 55.5q11 9 19 13.5t14.5 9.5t12.5 12.5t12 21.5q9 20 22.5 35.5t28 30t29 29.5t25.5 33q13 6 27 10.5t27.5 10.5t25 14t19.5 22q-1 36 -27 48t-57 12q-23 0 -43.5 -9t-43.5 -9q-16 0 -30 7t-30 7 q-10 0 -16.5 -4.5t-15.5 -4.5q-8 0 -14 2.5t-14 2.5l-6 -5q-1 -5 -8 -6t-17 -1q-14 0 -29 1.5t-20 1.5q-35 0 -57.5 -24.5t-22.5 -58.5q0 -17 2.5 -33t2.5 -33q0 -14 -5.5 -30.5t-15 -30t-23 -22.5t-29.5 -9q-18 0 -34.5 8.5t-30.5 18.5v5q0 10 4.5 18.5t10 17t10 17 t4.5 18.5q0 11 -7.5 19t-7.5 19q0 14 6 27t6 27q0 19 -7 36t-7 35q0 6 7 20t17 29t20 26t16 11q10 0 19 -2.5t19 -2.5q27 0 54.5 5.5t56.5 5.5q23 0 46.5 -1t46.5 -1q50 0 97.5 9.5t96.5 9.5q16 0 31.5 -1.5t31.5 -1.5q36 0 72 6t72 6q18 0 35.5 -3t33.5 -12v-1 q-4 -9 -4 -22q0 -9 3.5 -16t7.5 -13t7.5 -12t3.5 -13q0 -8 -13.5 -28.5t-31.5 -45t-34.5 -48.5t-22.5 -38q-5 -12 -14.5 -19t-21 -11.5t-23.5 -8.5t-22 -11q-14 -10 -33 -32t-36 -47.5t-29 -51t-12 -42.5q0 -10 11 -21.5t26 -22.5t30 -21t23 -17q10 -10 20.5 -12t21 -3 t20.5 -4t19 -14q8 -10 18.5 -18.5t20 -17.5t16 -19.5t6.5 -25.5h43v-29q26 -17 32 -28.5t6 -21.5v-7q0 -9 5 -14q22 -22 31.5 -42t13 -40.5t6 -42.5t11.5 -49q6 -18 9.5 -36t3.5 -36zM478 1335q0 6 -4.5 10.5t-10.5 4.5q-10 0 -12.5 -11.5t-2.5 -18.5l2 4q1 -1 1 -3 q0 -1 -2 -1q8 0 18.5 2.5t10.5 12.5z" />
<glyph unicode="4" horiz-adv-x="1254" d="M1189 45q-8 1 -15 5.5t-15 4.5q-5 0 -7.5 -3t-4.5 -7q-4 -6 -23.5 -10t-43 -6t-45 -2.5t-30.5 -0.5q-21 0 -42 4t-40 14q-13 -8 -33 -8q-5 0 -10.5 0.5t-10.5 0.5q-17 0 -28.5 -8t-23.5 -8q-9 0 -17 3.5t-15 8t-13.5 8.5t-12.5 4t-10.5 -4t-8 -10t-6 -12t-4.5 -10 q-4 8 -13 9.5t-18.5 2t-17 3t-8.5 13.5h-8q-3 0 -9 1.5t-6 6.5q0 11 5.5 19.5t5.5 18.5q0 5 -2 11l-10 1q-13 0 -20.5 -7t-13.5 -16.5t-11.5 -19.5t-15.5 -15q-17 0 -33 -5.5t-33 -5.5q-11 0 -22.5 4.5t-21.5 12t-16 18t-6 22.5q0 15 6.5 29t16.5 24q22 22 49 28.5t55 8 t54.5 5t47 21t33 54.5t12.5 107v34q-21 -3 -44 -3q-53 0 -104.5 9t-105.5 9q-28 0 -55 -7t-55 -7t-55.5 4.5t-55.5 4.5q-14 0 -27 -3.5t-25 -8t-22 -8t-17 -3.5q-15 0 -33.5 2t-35 8t-29 17t-16.5 30q-4 17 -11 35t-7 36q0 4 4 12.5t8.5 20.5t8.5 26.5t4 29.5q0 10 4.5 23.5 t11.5 27t15 25.5t15 19q6 6 13 9t15 5.5t15.5 5t13.5 8.5q8 7 13.5 16.5l11 19t11.5 18.5t15 15q6 5 15.5 10.5t9.5 14.5q0 8 -3 16t-3 16v8.5t1 8.5q22 6 37 18t26.5 27t21 32.5t21.5 34.5q22 34 50.5 62t58.5 54q18 15 28.5 34t21.5 37t25 33.5t38 23.5q-4 10 -4 17 q0 15 10 25t21 19q19 16 29.5 30t21 27.5t24.5 26.5t40 26q18 9 21 19t4.5 18.5t7.5 14t29 5.5q24 0 46.5 -6.5t39.5 -19t27.5 -32t10.5 -45.5q0 -23 -6 -45.5t-6 -45.5q0 -17 4.5 -34t4.5 -34q0 -32 -26 -51q5 -6 12.5 -33.5t14.5 -59.5t12 -61.5t5 -38.5q0 -18 -7.5 -34.5 t-7.5 -33.5q0 -19 5 -37t5 -37q0 -33 -4 -65.5t-4 -65.5q0 -15 0.5 -31t5 -31t13.5 -26.5t26 -16.5q27 -8 59.5 -12.5t64 -7.5t59.5 -6.5t45 -9.5q7 -3 12 -10.5t8 -17.5t4 -20.5t1 -17.5v-6l-1 -20q-8 2 -14 2q-12 0 -20.5 -4t-15.5 -9.5t-12 -10t-10 -4.5 q-6 11 -12.5 21.5t-14.5 19.5q-11 -6 -12.5 -16.5t-2 -20.5t-4 -17t-16.5 -7q-19 0 -37 2.5t-36 2.5q-47 0 -70.5 -21t-23.5 -69q0 -27 9.5 -51t20.5 -42.5t20 -30.5t9 -15q13 8 32 8q14 0 26.5 -2.5t25.5 -2.5q17 0 30 9t21 9q17 0 33 -5.5t32 -9.5q0 -6 6 -10t13.5 -8.5 t14 -10t6.5 -15.5q0 -8 -1 -15t-1 -15q0 -13 5.5 -24t6.5 -24zM793 1106q0 6 -8.5 17.5t-12.5 17.5q-8 13 -12.5 27t-10.5 25.5t-16.5 19t-30.5 7.5l2 -11q-20 -12 -34 -29.5t-26 -34.5t-25 -32t-31 -21v-9q0 -19 -6.5 -34t-17.5 -27.5t-25 -23t-28 -19.5q-12 -8 -18.5 -18 t-12 -20t-11.5 -19t-18 -15q-13 -7 -17 -11.5t-5 -9.5t-1.5 -11.5t-4.5 -16.5q-7 -14 -16 -27.5t-15 -27.5q-8 -17 -17.5 -29t-21 -22l-23 -20t-21.5 -24q-5 -7 -16 -25t-22 -39t-19.5 -39t-8.5 -25q0 -10 7.5 -16t20 -9.5t28 -5t32.5 -1.5q40 0 66 2t31 2q20 0 40.5 -3.5 t33.5 -19.5q5 -6 10.5 -13t14.5 -7q6 0 10 3.5t11.5 7t21 7t38.5 3.5q7 0 21.5 4.5t30 10.5l31 12t25.5 8q16 52 32.5 104.5t16.5 108.5q0 25 -3.5 49.5t-3.5 50.5q0 14 3.5 27.5l7 27l7 27t3.5 27.5t-5 27t-5 27q0 9 3.5 18.5t8 18t8.5 15.5t4 13zM848 283q-5 8 -14 11 t-18 3l-11 -6q1 -7 6 -13t5 -13q8 0 20 4t12 14zM332 765q0 6 -4.5 10.5t-9.5 4.5q-11 0 -13 -11t-2 -19q7 0 18 2t11 13z" />
<glyph unicode="5" horiz-adv-x="1101" d="M1033 562q0 -14 -7.5 -26.5t-7.5 -26.5q0 -9 3 -16.5t3 -17.5q0 -9 -2.5 -20.5t-7.5 -21.5t-12.5 -17t-18.5 -7q-5 0 -8 1l-1 -7q0 -10 5 -13.5t11 -5t11 -4t5 -9.5q0 -8 -5 -11.5t-11 -6.5t-11 -7.5t-5 -14.5q0 -12 2.5 -23t2.5 -22q0 -7 -2 -13.5t-10 -8.5l-31 -44 q-8 -12 -18 -15.5t-18.5 -5.5t-14.5 -5.5t-6 -14.5q-2 -25 -12 -42t-26 -27.5t-36.5 -15.5t-43.5 -5q-21 0 -42 8q-5 -5 -5 -12q0 -9 13 -12.5t20 -4.5q-1 -13 -8.5 -21t-18.5 -12.5t-25 -6t-28 -1.5q-18 0 -33.5 1.5t-26.5 1.5t-19 -4.5t-15.5 -10t-14.5 -10.5t-15 -5l-8 4 q-3 2 -6.5 2.5t-6.5 0.5q-14 0 -28 -2.5t-28 -2.5q-26 0 -58 7t-57 12q-14 3 -21 10.5t-12.5 16.5t-12.5 17t-20 11q-10 3 -18.5 3.5t-16 1.5t-15 4t-15.5 11q-11 11 -18 24l-14 26t-16 24.5t-24 18.5q-10 5 -18.5 15t-9.5 21q10 15 14 28q-3 12 -8 15.5l-10 7t-9 11 t-4 27.5t-2.5 39t-2.5 39q0 28 11.5 46.5t30.5 29.5t42.5 16t47.5 5q20 0 43.5 -4t44 -14t34 -27t13.5 -42q0 -35 -9 -68t-9 -68q0 -14 5 -26.5t10.5 -25t10.5 -25t5 -25.5q0 -2 -0.5 -5t-0.5 -5q20 1 39 3t39 2q26 0 49 -9.5t46 -9.5q16 0 31.5 4.5t30.5 9.5t30.5 9.5 t32.5 4.5q18 0 30 7.5t21.5 18t19.5 22t25 18.5q32 15 56 40t40.5 55.5t24.5 64.5t8 69q0 41 -13 83.5t-36 83t-54.5 76t-69 62t-79 42t-83.5 15.5q-30 0 -63.5 -8t-62.5 -16q-15 -4 -27.5 -13.5t-24.5 -19.5t-24.5 -18.5t-28.5 -11.5q-10 -10 -21 -24.5t-23.5 -27.5 t-26.5 -22t-30 -9q-20 0 -32.5 18t-19.5 47t-9.5 65t-2.5 71q0 43 2 78.5t2 50.5q0 28 -2 55.5t-8 53.5l6 1q11 0 18.5 -7t18.5 -8v6q0 15 -6.5 23.5t-15 14.5t-15 12.5t-6.5 18.5q0 18 1 44t3 54.5t3.5 55.5t3.5 46q2 35 25.5 46t54.5 11q32 0 57 -5.5t44.5 -11.5t36 -11.5 t32.5 -5.5q14 0 28.5 2t28.5 2q36 0 72.5 -9.5t74.5 -9.5q23 0 44.5 6t43.5 13t44 13t46 6q23 0 41 -7q21 -2 28.5 -8.5t8.5 -14t-1.5 -14.5t-2.5 -10q0 -6 -13 -15.5t-29.5 -19t-32 -18t-21.5 -11.5q-21 -23 -51.5 -30.5t-60.5 -7.5q-15 0 -46 2.5t-69.5 6.5t-80.5 9 t-79.5 10.5t-66 11t-39.5 9.5q-2 -2 -2 -4v-4q0 -35 8.5 -70.5t8.5 -70.5l-1 -8q-14 0 -25.5 7.5t-25.5 7.5l-6 -1l-1 -11q0 -14 4.5 -24t12 -17t17.5 -12.5t21 -11.5t18 -28t11.5 -48.5t8 -51.5t8.5 -38q13 6 39 13t54.5 13.5t54.5 11t40 4.5q36 0 70.5 -8.5t70.5 -8.5 q40 0 72 -20t63 -41q6 -5 13.5 -21t15 -34t16 -32t17.5 -14q8 0 16.5 3.5t17.5 3.5q25 0 41.5 -17.5t27.5 -42t17 -51t10 -44.5q2 -9 6.5 -16t9.5 -14.5t9 -15t4 -16.5zM822 152q0 11 -11 15t-20 4q-8 0 -19 -3t-11 -12v-2h10q12 0 25 -3t22 -12q4 5 4 13z" />
<glyph unicode="6" horiz-adv-x="1205" d="M1122 462q-12 -29 -19 -59.5t-12.5 -61.5t-11 -61.5t-14.5 -60.5q-30 -14 -55 -41.5l-50 -55t-51.5 -49.5t-59.5 -24q-34 -3 -63.5 -14t-58.5 -23t-58.5 -21.5t-62.5 -9.5q-12 0 -37 1t-50.5 5t-47 12t-26.5 21q-5 12 -14.5 15.5t-20.5 4.5t-22.5 1.5t-20.5 6.5 q-13 8 -23.5 19.5t-20.5 23.5t-20 23.5t-22 19.5q-13 8 -29 13.5t-28 14.5q-5 4 -6.5 10.5t-4 13t-6 12t-11.5 7.5l-1 9q0 21 9 40t9 40q0 11 -6.5 22t-15.5 22l-18 22t-13 23q-8 19 -14 42t-22 37q-16 15 -16 39q0 14 2 27t2 27q0 16 -6.5 28.5t-6.5 26.5q0 10 8.5 15.5 t16.5 7.5q0 9 -4 14t-8.5 8t-8 5t-3.5 5q5 10 14.5 19.5t9.5 19.5q0 11 -9.5 20t-9.5 20q0 3 2.5 3.5t6 1t6.5 3t4 9.5q7 58 16.5 113t22.5 112q2 12 3.5 24.5t1.5 25.5v12t-1 12q17 14 34.5 45t34 62.5t31.5 55t27 23.5q11 0 21.5 -3t21.5 -3q3 0 13 0.5t11 5.5 q-3 5 -9 8.5t-12 7.5t-10.5 8t-4.5 10q0 5 4.5 11t11 12t13 11t9.5 8q25 21 44 33.5t37.5 21t40.5 14t53 11.5q9 2 10 6.5t2.5 9t6.5 8t22 3.5t31 8.5t31 8.5h45q20 0 38.5 -0.5t30.5 -1.5q15 -2 28.5 -6t26.5 -8.5t26.5 -8t29.5 -3.5q12 0 14 -5t3 -11t4 -11t17 -5 q6 0 11.5 1.5t12.5 1.5t10.5 -5t6 -10.5t4.5 -10.5t5 -5t7 1.5t10 1.5q8 0 11 -5t4.5 -12t2.5 -14.5t5 -12.5q16 -19 28 -31.5t20.5 -26t12.5 -31t4 -46.5q0 -26 -7 -49.5t-18.5 -45.5t-25.5 -43t-28 -41q-19 10 -41 10q-16 0 -31 -2.5t-30 -2.5q-22 0 -41 10 q-7 15 -16 29.5t-17.5 29.5t-14 31t-5.5 33q0 14 4 27t9 25.5t9 25.5t4 27q0 25 -26 27q-27 2 -54 8t-53 6q-29 0 -54 -13q-1 25 -9 33.5t-19 10t-22.5 0.5t-20.5 5q2 -2 6 -5t8.5 -6.5t8 -7t3.5 -6.5q0 -5 -9 -6t-19.5 -3.5t-19.5 -8t-9 -18.5q0 -5 0.5 -8.5t1.5 -7.5 q-3 1 -11 1q-9 0 -16.5 -2.5t-15 -6t-15 -6t-17.5 -2.5q-7 0 -10 1q-9 -5 -11.5 -9t-2.5 -9t1 -10.5t1 -11.5q0 -10 -4.5 -16.5t-11.5 -11t-15 -8.5t-14 -9q-32 -26 -55.5 -63.5t-40 -80.5t-24.5 -87.5t-8 -84.5q0 -21 8 -29.5t20.5 -12t27.5 -5t29 -8.5q15 13 22.5 25 t14.5 23.5t18 21t33 16.5q50 17 104.5 28.5t107.5 11.5q39 0 77.5 -11t64.5 -43h9q18 0 44.5 -9t53.5 -22.5t50 -30t33 -31.5q5 -8 13 -8q5 0 9 1t9 1q8 0 8 -8q0 -3 -0.5 -6t-0.5 -5q0 -16 13 -28t28 -25t28 -28t13 -36q0 -25 -8 -48t-8 -47q0 -23 14 -36t34 -19zM929 457 q0 26 -7.5 57t-21 60.5t-32 55t-39.5 41.5q-15 11 -40 26.5t-53 30t-54.5 24.5t-45.5 10q-14 0 -28.5 -4.5t-29.5 -4.5q-14 0 -28.5 2.5t-28.5 2.5t-25 -5.5t-15 -20.5h-100q2 -10 2 -18q0 -23 -17.5 -46.5t-38.5 -52t-38.5 -62.5t-17.5 -76q0 -14 4 -26.5t8.5 -25.5 t8.5 -26.5t4 -28.5q0 -22 1.5 -29t5.5 -9t11.5 -4t19.5 -14q10 -10 17 -22.5t14.5 -24.5t17.5 -21t26 -12q3 -1 12.5 -7.5t20.5 -15t21 -16.5t14 -11q4 -8 26.5 -13t50 -8t53.5 -4t36 -1q41 0 62.5 8.5t36.5 22t30 30t43 32.5q26 14 47 37t36 51t23 58.5t8 59.5z" />
<glyph unicode="7" horiz-adv-x="1137" d="M1123 1393q-1 -8 -1 -24.5t-1 -36t-4 -40t-8 -37.5t-13.5 -27.5t-20.5 -10.5q-2 0 -3 0.5t-2 0.5q-2 -17 -11 -42t-23 -54t-31 -58.5t-34.5 -56.5t-34.5 -48t-29 -32t-23.5 -35t-23.5 -52.5t-24.5 -57t-26.5 -46.5q-12 -15 -23.5 -39.5t-13.5 -44.5l3 -10 q-2 -15 -10 -21.5t-18 -13.5t-17.5 -18t-7.5 -35q0 -9 -4 -16t-8.5 -12.5t-8 -11t-3.5 -12.5q0 -14 4.5 -27t4.5 -27q0 -29 -5 -56t-5 -55q0 -20 -6 -37t-14 -33t-17.5 -32t-15.5 -34q-5 -14 -11 -24t-19 -18q2 -7 4 -13.5t2 -14.5q0 -9 -4 -25t-11 -31t-17 -26.5t-22 -11.5 q-4 0 -6 1q4 -7 5 -14.5t1 -15.5q0 -17 -3 -34t-3 -34v-9h-9q-59 0 -84.5 29t-25.5 87q0 43 7.5 84.5t7.5 84.5q0 14 -7.5 26t-7.5 26q0 5 2.5 8t6.5 7q14 12 20 28t11.5 32t13.5 28t25 16v7q0 10 -4 18.5t-4 18.5t6 18t11 16q6 9 15 33.5t18.5 50t18 46.5t14.5 24 q19 10 25 25.5t8.5 31.5t6.5 30.5t19 22.5q12 6 17.5 18.5t8.5 27t5.5 29t8.5 25.5q5 9 12.5 15.5t14.5 12.5t12 13t5 18v6q8 6 14 13t9 16q4 15 11.5 27t16 23t16 23t12.5 26q4 12 17.5 37t28.5 50.5t27 46.5t12 25q0 10 -8.5 16t-19.5 9t-23 3.5t-19 0.5q-25 0 -49 -3.5 t-49 -3.5q-41 0 -86 11.5t-74 44.5q-9 -4 -18 -5t-18 -1q-21 0 -40.5 5t-39.5 11t-39.5 11t-40.5 5q-20 0 -42.5 -7t-42 -20t-34 -30t-19.5 -38q-5 -20 -13 -37.5t-17.5 -34.5l-19 -34t-15.5 -35q-6 -15 -18 -28.5t-27.5 -23t-32.5 -15t-33 -5.5q-32 27 -32 65 q0 23 2.5 44.5t2.5 44.5q0 13 6.5 24t15.5 21l18 20t14 22q6 14 9 32t5 37.5t2.5 38t0.5 33.5q0 19 -0.5 37.5t-3.5 36.5q15 0 21.5 3.5t10 8t6 8.5t9.5 4q15 0 30.5 -7.5t31.5 -16t33 -16t35 -7.5q24 0 42.5 10.5t37.5 23.5t41.5 23.5t55.5 10.5q11 0 19.5 3.5t15.5 8 t14 8.5t16 4q10 0 15.5 -7.5t15.5 -7.5q9 0 17.5 4.5t17.5 4.5q12 0 44.5 -13t69 -30.5t68.5 -34.5t44 -25q29 0 57 8.5t56 19t57 19t59 8.5q25 0 34.5 -7t14 -16t9 -18.5t21.5 -13.5z" />
<glyph unicode="8" horiz-adv-x="1226" d="M1127 425q0 -11 -3.5 -22t-8 -21.5t-8 -21t-3.5 -21.5q0 -12 4 -19.5t4 -11.5q0 -8 -9 -24t-21.5 -34t-27 -35t-24.5 -27q-12 -12 -29 -27t-33.5 -31.5t-30 -33.5t-18.5 -33q-43 -4 -85.5 -13l-85 -18t-85.5 -16.5t-86 -9.5v13q-1 -1 -4 -2t-4 -1l-22 -4q-16 -3 -33 -5.5 t-34 -2.5q-24 0 -45 9.5t-42.5 21.5t-45.5 21.5t-53 9.5q-15 0 -25 7.5t-20 17.5q-24 25 -47 40t-41 32t-29 43t-11 74q0 22 7.5 40.5t7.5 39.5q0 12 -4.5 21t-10.5 18t-10.5 19.5t-4.5 26.5q0 20 4 39.5t9 39l10 39t8 39.5q7 57 40 108t84 83q6 4 6 12q0 10 -7.5 23.5 t-17.5 29.5t-20.5 35t-15.5 39l-28 29q-5 15 -6 30.5t-1 31.5v28q0 25 -5 48.5t-5 48.5q0 34 11.5 52.5t25 31.5t25 26t11.5 35q0 13 9 21t20 14.5t20 13.5t9 19q0 9 3.5 12.5t11.5 7.5q11 4 34 16.5t48 25t46 22.5t28 10q10 0 19 -3t20 -4l8 4q3 7 19 11t35.5 6.5t38 3.5 t26.5 1q27 0 53 -7t52 -15.5t52.5 -15.5t53.5 -7q5 0 10.5 0.5t11.5 1.5q4 -11 22 -29t38.5 -34.5t37 -29l16.5 -12.5q0 -4 -2 -7t-2 -7l4 -9h29q5 -7 7 -14.5t7 -14.5q19 -27 28.5 -44t13 -36t3 -46t-0.5 -74q0 -42 -6.5 -82t-35.5 -76q-9 -12 -18 -32.5t-15.5 -44 t-10.5 -45.5t-4 -37q0 -19 7.5 -30t19.5 -20t26.5 -18t28.5 -24t25 -38.5t17 -60.5q1 -9 6 -32t10 -47t9.5 -43zM947 1099q0 41 -21.5 72.5t-53.5 56.5t-69 43t-69 32q-10 4 -20.5 11.5t-21 14.5t-21 12t-20.5 5q-17 0 -33 -5t-33 -5q-19 0 -37 9q-3 -20 -11 -27t-19 -8.5 t-23.5 -1t-25.5 -5.5q-38 -17 -68 -35t-51 -42t-32 -56t-11 -77q0 -27 9.5 -55t24.5 -54.5t34 -50t38 -41.5q12 -12 32.5 -19t43.5 -10t45.5 -4t39.5 -1q56 0 89.5 6t59 14t52 17.5t69.5 17.5q24 4 43.5 26t32.5 50.5t20 58.5t7 51zM948 492q0 17 -5 33.5t-12.5 32t-16 30.5 t-15.5 30q-8 18 -20 29t-26 18.5t-29.5 14.5t-30.5 17q-42 28 -93 36.5t-99 8.5q-64 0 -123.5 -19.5t-105.5 -56t-73.5 -88.5t-27.5 -116q0 -36 14 -68t35 -61q9 0 22 -18t29 -40t34 -42.5t37 -24.5q49 -12 98.5 -22.5t100.5 -10.5q31 0 61 1t60 1q14 8 20 22.5t18 25.5 q13 12 26 18.5t24.5 13t21 16.5t16.5 30q3 10 9 14.5t11.5 8t9.5 9.5t4 21q0 18 4 35t9 33.5t9 33.5t4 34zM600 77q0 10 -7.5 17t-15.5 11q-8 -3 -10 -12t-2.5 -18.5t-3.5 -17t-13 -7.5q-14 0 -26.5 6.5t-26.5 6.5h-4v-9q0 -15 8 -24t24 -9q10 0 23.5 4.5t25.5 12t20 17.5 t8 22z" />
<glyph unicode="9" horiz-adv-x="1197" d="M1102 790q0 -38 -1 -76.5t-7 -76t-19 -73t-37 -66.5q-13 -17 -19 -38t-8 -41q-12 0 -22.5 4.5t-20.5 10.5t-20 10.5t-22 4.5q-16 0 -16 -15q0 -5 3 -13t7.5 -15t10.5 -12t12 -5q9 3 11 16q5 -3 9.5 -8t4.5 -10q0 -9 -11 -17t-23.5 -15.5t-23.5 -15t-11 -16.5 q0 -7 10 -10.5t21.5 -6.5t21.5 -6.5t10 -11.5q0 -9 -12.5 -15t-18.5 -9q-16 -7 -31.5 -24.5t-29 -36t-24.5 -32.5t-17 -14q-9 0 -18 2t-18 2q-11 0 -24.5 -4t-13.5 -18q0 -12 8.5 -21t19.5 -13q-9 -10 -23 -10q-7 0 -13.5 1t-12.5 1q-12 0 -20.5 -5.5t-15.5 -13t-13.5 -16 t-15.5 -14.5q-1 -1 -14 -5l-32.5 -10t-41.5 -12.5t-41.5 -12t-33.5 -9t-17 -3.5q-44 0 -88.5 16.5t-83.5 33.5q-28 12 -46.5 27.5t-32.5 33.5t-26 39t-27 45l-29 14v29q-8 13 -13.5 20.5t-10 14.5t-6.5 16.5t-2 26.5q0 13 3 30t8.5 33.5t14.5 30.5t21 22q23 15 52 31t58 16 q19 0 33.5 -9t29 -21t30.5 -23.5t39 -16.5v-10v-6q0 -20 -8 -36t-8 -37q0 -7 1 -11q-14 2 -28.5 4t-28.5 2t-28.5 -2t-28.5 -4q5 -12 25 -18.5t47 -10.5t57 -8.5t55.5 -13t42.5 -23t17 -39.5q0 -10 -1 -15q14 12 45.5 30t67 34.5t69 28t51.5 11.5q11 0 17 -4t6 -15 q12 0 18 10.5t10 25.5t8 33.5t11 36t19.5 31.5t33.5 20q-5 13 -5 26q0 19 7 39t16 40.5t16 42t7 44.5q0 37 -27 64q-10 -5 -36.5 -14.5t-60.5 -20.5t-72 -22.5t-72 -20.5t-61 -15t-38 -6q-16 0 -30.5 3.5t-29.5 7.5t-31.5 7.5t-35.5 3.5q-20 0 -27.5 5.5t-13 11.5t-15 11.5 t-33.5 5.5q-11 0 -28.5 15t-36.5 35t-35.5 39.5t-26.5 27.5q-4 3 -10 6.5t-13 6.5t-12.5 6t-8.5 7q-6 8 -7 21.5l-2 27t-5 23.5t-14 10q-2 0 -3 -0.5t-2 -0.5q-5 0 -7 4t-2 20q0 15 -4.5 32.5t-10 35.5t-10 36t-4.5 34q0 24 6.5 46t6.5 48q0 9 6 27t15.5 39.5t21.5 44.5 t24 42.5t23.5 33t20.5 15.5q3 1 9 2t12 3.5t11 5.5t5 7t-0.5 7t-0.5 7q0 16 5.5 22t13.5 8.5t17 4t16 9.5q12 14 21.5 22t18 12.5t17.5 5.5t21 1h38q6 12 21.5 19t34.5 10t37 3.5t30 0.5q24 0 54 -5.5t60.5 -12.5t59 -12.5t50.5 -5.5q12 0 23 3q0 -24 3 -33.5t10 -14 t18.5 -8t27.5 -14.5q25 -17 45.5 -40.5t38.5 -46.5q-2 -5 -5.5 -18t-11 -27.5t-18 -25.5t-25.5 -11q-22 0 -41 14.5t-33 29.5q-13 14 -32 25.5t-40 21t-42 18t-37 16.5q-14 18 -34 26.5t-43 8.5q-39 0 -76.5 -13.5t-74.5 -21.5q-21 -19 -29 -43q-8 2 -14 2q-9 0 -23.5 -4 t-28 -11.5t-23.5 -17t-10 -19.5v-5v-4q0 -17 -10 -28.5t-19 -26.5q-12 -19 -10.5 -42t-3.5 -43q-3 -13 -13 -27.5t-10 -27.5q0 -15 3.5 -29.5t3.5 -31.5q0 -9 7 -32.5t17.5 -48t22 -43.5t20.5 -19q6 0 8.5 5t4 10.5t3 10.5t4.5 5q5 0 19 -9.5t32.5 -23.5t41 -30.5 t44.5 -30.5t43 -23.5t37 -9.5q31 0 64.5 4.5t63.5 12.5q11 3 17.5 8t11.5 10.5t10.5 11t14.5 8.5q11 4 23 4.5t23.5 1t22.5 3.5t21 13q7 7 16 22t17 33t14 34.5t6 26.5q0 17 4.5 32.5t9.5 31.5t9.5 31.5t4.5 32.5q0 27 -6.5 52.5t-6.5 51.5q0 9 9 15.5t21 11t24 6.5t19 2 q15 0 24.5 -7.5t17.5 -17t17 -17.5t22 -9q6 -1 12.5 -3t6.5 -10q0 -18 -13.5 -29.5t-29 -20.5t-29 -17.5t-13.5 -21.5q0 -7 7 -8.5t12 -1.5q17 0 33 5t33 5q10 0 15.5 -5t8 -12t2.5 -16v-16q0 -48 9.5 -94t9.5 -94z" />
<glyph unicode=":" horiz-adv-x="703" d="M549 836q-2 -27 -13.5 -57t-31 -53t-45.5 -34.5t-57 -2.5q-5 -1 -5.5 -5.5t-0.5 -10.5t-0.5 -11.5t-3.5 -7.5q-33 -9 -56.5 -3.5t-43.5 16t-41.5 22.5t-51.5 16q-20 35 -37 73.5t-31 80.5q7 3 15 4t14 6q-2 9 -10 10.5t-19 1.5q4 15 11 26t14.5 22t13 23.5t6.5 29.5 q21 10 44 29t47 33t48.5 16.5t47.5 -21.5q17 12 34.5 8t20.5 -27q11 12 35 7q3 -11 9.5 -19t6.5 -20q77 3 74 -74q-9 -3 -18 -6.5t-17 -9.5q11 -7 12.5 -23t-12.5 -22q4 -4 10 -5.5t12.5 -2.5t11.5 -3t7 -6zM414 904q-6 0 -8 3t-10 1q0 -9 -5 -17.5t-10.5 -16t-8.5 -14.5 t1 -14q17 7 30 19t11 39zM608 246q0 -36 -17.5 -55t-39 -30t-39.5 -18.5t-18 -21.5l6 -8q4 0 15.5 -1.5t23 -4.5t20.5 -7t9 -9q-1 -4 -4 -6.5t-6 -4.5q-8 -6 -15 -7t-12 -2.5t-9 -6t-7 -18.5q-3 -12 -11 -17.5t-16.5 -9t-15.5 -7.5t-7 -13v-2q-23 17 -51 17q-29 0 -57 -9.5 t-57 -9.5q-24 0 -52 14t-52 35.5t-40 48t-16 52.5q0 7 3.5 12.5t8.5 10.5q-5 13 -12 17t-13.5 6t-11 6.5t-4.5 18.5q0 20 -2.5 38.5t-2.5 37.5q0 11 1.5 22t6 19.5t12.5 14t21 5.5h5q-8 11 -13 24.5t-5 27.5q0 2 0.5 4.5t3.5 2.5q5 0 9.5 -2.5t9.5 -3.5l9 4q5 5 5 10t-3 8 t-4 8q4 5 11.5 6.5l12.5 2.5q13 3 17.5 7t5.5 9.5t2.5 10.5t9.5 9q6 3 23 6t36.5 6t38 5t26.5 3q6 -11 24.5 -16.5t42.5 -8.5t51 -6t49.5 -10t37 -20t14.5 -35l-1 -9l-4 -1q-11 0 -20 7t-20 7q-5 7 -18 -2.5t-24 -22t-15 -23t10 -5.5q7 2 13.5 6.5t14.5 4.5q4 0 10 -5.5 t14.5 -11.5t18.5 -11.5t24 -5.5q13 0 25 6q4 -23 9 -46t5 -47zM455 193q-6 12 -18 17l1 -2q0 -4 -4.5 -7.5t-10.5 -6.5t-10.5 -6t-4.5 -5q0 -3 6 -4t8 -1q7 0 20 3.5t13 11.5zM380 239q-16 -1 -31.5 -4.5t-32.5 -3.5t-36 8v-43q9 5 18 6.5t19 1.5h21q35 0 42 35zM238 120v3 q0 12 -6.5 18t-15.5 10t-19 7.5t-17 9.5q3 -56 57 -57z" />
<glyph unicode=";" horiz-adv-x="673" d="M537 836q-2 -27 -13.5 -57t-31 -53t-45.5 -34.5t-57 -2.5q-5 -1 -5.5 -5.5t-0.5 -10.5t-0.5 -11.5t-3.5 -7.5q-33 -9 -56.5 -3.5t-43.5 16t-41.5 22.5t-51.5 16q-20 35 -37 73.5t-31 80.5q7 3 15 4t14 6q-2 9 -10 10.5t-19 1.5q4 15 11 26t14.5 22t13 23.5t6.5 29.5 q21 10 44 29t47 33t48.5 16.5t47.5 -21.5q17 12 34.5 8t20.5 -27q11 12 35 7q3 -11 9.5 -19t6.5 -20q77 3 74 -74q-9 -3 -18 -6.5t-17 -9.5q11 -7 12.5 -23t-12.5 -22q4 -4 10 -5.5t12.5 -2.5t11.5 -3t7 -6zM402 904q-6 0 -8 3t-10 1q0 -9 -5 -17.5t-10.5 -16t-8.5 -14.5 t1 -14q17 7 30 19t11 39zM607 203q-14 -16 -22 -37t-8 -43q0 -5 0.5 -10t1.5 -10q-4 -15 -11 -31t-14 -32.5t-12 -32.5t-6 -32q-12 -20 -29 -28q-4 -16 -5 -30t-1 -30q0 -18 -10.5 -25t-23.5 -12t-24.5 -12.5t-14.5 -25.5q-2 -9 -11 -24t-21 -31t-24 -31t-18 -23 q-14 -18 -26 -33.5t-25.5 -28t-30.5 -20.5t-41 -10q-14 -2 -27.5 -7.5t-25.5 -5.5q-19 0 -28.5 10t-14.5 23t-9.5 25.5t-14.5 16.5q-5 2 -11 5t-6 9t7 17t9 20q-4 8 -4 15q0 9 5.5 11.5t13 4.5t15 6t11.5 15q7 20 24 34.5t37.5 28t43 27t40.5 31t30 41t12 55.5v11.5t-0.5 18 t-1.5 16.5t-2 7q-18 0 -35 -8t-36 -8q-10 0 -27 13t-36 30.5t-36 34t-27 24.5v15v9q0 37 -7.5 73.5t-7.5 74.5q0 28 6.5 48.5t15 36t15 28.5t6.5 28q8 -2 13 -2q6 0 15 6t17.5 13.5t16 15l10.5 10.5q11 5 22.5 5h22.5q12 0 22.5 3.5l21 7l21 7t23.5 3.5q24 0 47.5 -5 t47.5 -7q7 -9 10.5 -19t8 -18.5t11 -14.5t20.5 -6q2 0 3.5 0.5t3.5 0.5q-3 -10 -12.5 -22.5t-9.5 -20.5q0 -11 11.5 -25t22.5 -14q6 0 11.5 3t11.5 3q3 0 5 -3.5t3.5 -8t4.5 -8t9 -3.5v-4q0 -16 -9 -20t-20 -5q1 -10 8.5 -13.5t16 -6t15 -7.5t6.5 -18q0 -11 -3 -21t-3 -21 q0 -9 3.5 -17t13.5 -10z" />
<glyph unicode="&#x3c;" horiz-adv-x="949" d="M779 423q23 -9 32.5 -25t9.5 -35q0 -20 -8.5 -40.5t-22.5 -37.5t-31 -27.5t-33 -10.5q-12 0 -30.5 8.5t-38 21.5t-37 28t-26.5 29h-8q-8 0 -15 -1t-15 -1q-17 0 -32 15q-16 15 -28.5 21t-25 9l-25 6t-28.5 12q-25 14 -47 34t-41 40q-40 16 -71 28.5t-59.5 26.5t-56.5 32 t-62 46l1 15q0 29 -8.5 56t-8.5 55q0 15 5.5 23.5t14 14.5t19 10.5t20.5 11.5h28q4 4 4.5 10l1 12t2 11.5t7.5 8.5q10 6 20 8t20.5 4.5t21.5 6.5t24 14q11 8 22.5 16.5t23.5 18.5q13 10 29 16.5t32 12t31.5 12t28.5 18.5q11 10 19 19.5t16 18t17.5 16.5t24.5 15 q26 12 40 18.5t20.5 10.5t9 6.5t4.5 5.5t7 8.5t17 16.5q41 36 75.5 50.5t61.5 14.5q21 0 37.5 -7.5t28 -19.5t17 -27t5.5 -29q0 -20 -11 -35.5t-34 -18.5q-15 -2 -22 -7t-10 -10.5t-4.5 -10.5t-6.5 -7q-11 -5 -21.5 -9t-21.5 -9q-9 -4 -20.5 -14.5t-23.5 -22.5t-23 -22 t-18 -11q-1 0 -3 2.5t-4.5 6.5t-5 7t-3.5 3q-2 0 -3 -6t-2 -12.5t-1 -13v-7.5l-15 -3q-35 -8 -63.5 -25t-55.5 -36.5t-54 -38t-59 -29.5l2 -12q0 -1 -11 -7t-23.5 -13t-23.5 -13t-11 -7q0 -17 -0.5 -22t-2.5 -5q-1 0 -2 1.5t-3 1.5t-3.5 -5t-3.5 -20q1 -1 20 -11.5 t41.5 -23.5t41.5 -23.5t21 -10.5q5 -1 16 -1h20q24 0 34 -6t18 -14t19.5 -16.5t38.5 -13.5q7 -2 15.5 -7.5t16.5 -13t15.5 -15.5t13.5 -13q19 -18 44.5 -27t52.5 -13.5t52.5 -6t46.5 -5.5z" />
<glyph unicode="=" horiz-adv-x="1304" d="M1172 875q-8 -20 -23 -33t-26 -28q-12 -2 -31.5 -3.5t-31.5 -13.5q-26 9 -55.5 11.5t-59.5 5t-58.5 8t-52.5 20.5q-27 -15 -58 -15q-19 0 -37 4.5t-34 10.5q-24 -2 -46.5 -3t-43.5 -1q-27 0 -52 1t-50 1q-38 0 -75.5 -3t-82.5 -13q-3 1 -3 6q0 3 1 6.5t1 6.5q0 10 -20 10 q-12 0 -15.5 -8t-8.5 -15q-17 3 -31 3q-15 0 -30.5 -2.5t-34.5 -6.5q-26 10 -42 29t-25.5 43t-13 50.5t-3.5 52.5v17q8 6 19 9t22.5 5.5t22 6.5t16.5 12q15 -16 37 -20.5t46.5 -6t49.5 -4t47 -14.5q22 11 43 14t41 3q17 0 33 -1t32 -1q19 0 37 3q10 -9 25.5 -12.5t34.5 -3.5 q26 0 53.5 5t48.5 11q14 -9 29 -12.5t30 -3.5q31 0 63.5 8.5t66.5 8.5q32 0 61 -13q5 13 13.5 21t19.5 14q19 -9 41.5 -15.5t42.5 -15t35.5 -21t21.5 -34.5q-3 -10 -8 -10t-10 3t-13 3h-4q0 -8 5 -10.5t11.5 -3.5t12 -2t6.5 -7q-1 -4 -1 -7.5v-6.5q0 -26 11 -43zM259 994 q-2 0 -3 0.5t-3 0.5q-11 0 -19 -10t-8 -20q0 -6 4 -10.5t13 -5.5q7 1 9 6.5t2.5 12t1 14t3.5 12.5zM1164 468q-9 -20 -25.5 -33.5t-29.5 -28.5q-13 -2 -34.5 -3.5t-35.5 -13.5q-29 9 -40.5 7.5t-20 -4t-19.5 -0.5t-38 17q-8 -4 -34.5 -8.5t-57.5 -8t-58 -6t-36 -2.5 q-21 0 -41.5 4.5t-37.5 10.5q-14 -1 -18.5 2t-7.5 7.5t-7 8t-16 3.5q-15 0 -21.5 -3t-11 -6t-10.5 -6t-20 -3q-16 0 -22.5 -1.5t-11 -4t-9.5 -5t-18.5 -5t-38 -4t-66.5 -1.5q-5 1 -15.5 4t-22.5 6.5t-22 6t-14 2.5q-17 0 -34 -2.5t-38 -6.5q-29 10 -47 29.5t-28 43.5 t-14 51.5t-4 53.5q8 17 22 27t32 14.5t38 4t40 -3.5q47 -7 101 -27q24 11 47 14t46 3q19 0 35 -11t33 -11q6 0 12 3.5t12 7.5t11.5 7.5t10.5 4.5q5 -5 21 -9.5t35 -8t37 -6t29 -2.5q29 0 60 5t54 11q16 -9 32 -12.5t33 -3.5q11 0 35 5t54 11t62 10t59 1t44.5 -14t18.5 -36 q-3 -8 -5.5 -10.5t-2.5 -9t4 -21t15 -44.5zM1036 462q-2 0 -3 0.5t-4 0.5q-6 0 -12.5 1.5t-11.5 2t-8.5 -0.5t-3.5 -6q0 -3 2 -10t5.5 -14.5t8 -13.5t9.5 -6q7 1 9.5 6.5t3.5 12.5t1.5 14.5t3.5 12.5z" />
<glyph unicode="&#x3e;" horiz-adv-x="949" d="M170 423q21 4 46.5 5.5t52.5 6t52 13.5t45 27q6 5 13.5 13t15.5 15.5t16 13t16 7.5q27 5 38.5 13.5t19.5 16.5t18 14t34 6h20q11 0 16 1q2 0 21 10.5t41.5 23.5t41 23.5t20.5 11.5q-2 15 -3.5 20t-3.5 5t-3 -1.5t-2 -1.5q-2 0 -2.5 5t-0.5 22q0 1 -11 7t-23.5 13 t-23.5 13t-11 7l2 12q-32 11 -59 29.5t-54 38t-55.5 36.5t-63.5 25l-15 3v7.5t-1 13t-2 12.5t-3 6t-4 -3t-4.5 -7t-4.5 -6.5t-3 -2.5q-8 1 -18.5 11t-22.5 22t-23.5 22.5t-20.5 14.5q-11 5 -21.5 9t-21.5 9q-5 2 -6.5 7t-4.5 10.5t-10 10.5t-22 7q-23 3 -34 18.5t-11 35.5 q0 14 5.5 29t17 27t28 19.5t37.5 7.5q27 0 61.5 -14.5t75.5 -50.5q12 -11 17 -16.5t7 -8.5t4.5 -5.5t9 -6.5t20.5 -10.5t40 -18.5q15 -7 24.5 -15t17.5 -16.5t16 -18t19 -19.5q13 -12 28.5 -18.5t31.5 -12t32 -12t29 -16.5q12 -10 23.5 -18.5t22.5 -16.5q13 -10 24 -14 t21.5 -6.5t20 -4.5t20.5 -8q6 -3 7.5 -8.5t2 -11.5l1 -12t4.5 -10h28q10 -7 20.5 -11.5t19 -10.5t14 -14.5t5.5 -23.5q0 -28 -8.5 -55t-8.5 -56l1 -15q-34 -28 -62 -46t-56.5 -32t-59.5 -26.5t-71 -28.5q-19 -20 -41 -40t-47 -34q-16 -9 -28.5 -12l-25 -6t-25 -9t-28.5 -21 q-15 -15 -32 -15q-8 0 -15 1t-15 1h-8q-9 -14 -26.5 -29t-37 -28t-38 -21.5t-30.5 -8.5q-17 0 -33.5 10.5t-30.5 27.5t-22.5 37.5t-8.5 40.5q0 19 9.5 35t32.5 25z" />
<glyph unicode="?" horiz-adv-x="963" d="M904 1085q0 -20 -10 -39t-10 -40q0 -19 -7.5 -29t-18 -17.5t-22 -14.5t-18.5 -19q-6 -11 -6.5 -20.5t-1 -17.5t-4 -16.5t-16.5 -17.5q-22 -14 -37 -26t-27.5 -23.5t-24 -22.5t-26.5 -22q-5 -4 -13 -14t-17.5 -20.5t-18 -20t-12.5 -12.5q-17 -9 -30.5 -12t-23.5 -6t-17 -9 t-11 -22q-3 -19 -2 -41.5t3 -45.5t4 -45.5t2 -41.5q0 -9 -4.5 -14.5t-10 -10.5t-11 -10.5t-8.5 -14.5q-12 -6 -25.5 -8t-27.5 -2q-26 0 -46.5 11t-36 29.5t-24.5 43t-11 51.5q-3 40 3 75.5t14.5 63.5t16 46t9.5 23q12 22 28.5 33.5t36 20t40 17.5t40.5 25q9 7 25 10.5 t34 6.5t35 7t26 11q14 9 32 25.5t33.5 36t26.5 40.5t11 40q0 12 6 26t13 28.5t13 28.5t6 26q0 11 -3 23t-7 24t-6.5 23.5t-0.5 21.5q-6 14 -18.5 29t-28 27.5t-32.5 21.5t-32 11h-10h-15t-14.5 0.5t-9.5 2.5q-3 1 -12.5 0.5t-20 -1t-20 -1t-10.5 1.5q-23 20 -47 27.5 t-56 7.5q-19 0 -40 -1t-38 -7q-14 -7 -23 -16t-20 -17q-17 -13 -29.5 -20t-20 -14.5t-10 -19.5t0.5 -35l7 -46q12 -11 21 -15t15 -9t9 -13.5t3 -28.5l16 2q3 0 6 -1t6 -1q9 -12 26 -22.5t33 -21.5t28 -23t12 -27q0 -29 -12.5 -55t-33 -45.5t-46.5 -31.5t-54 -12 q-15 0 -30.5 4t-30.5 9q-42 13 -65.5 24.5t-35.5 24.5t-15.5 28t-5 34.5t-5.5 44.5t-17 59q-4 11 -7.5 18.5t-6.5 15t-4.5 16.5t-1.5 22q0 43 15 77.5t39 64t53 56t57 53.5q14 6 40 17t54.5 22t55 19.5t41.5 8.5q21 0 42.5 -5t43 -11t43.5 -11.5t44 -6.5q6 -1 15 -5.5 l19 -9.5t19 -9t15 -4q7 0 16 -6t18 -15t16 -18t10 -15q3 -8 9.5 -12.5t15 -8.5t17.5 -8t17 -10q14 -10 22 -19t12.5 -19t7 -23t5.5 -31q10 -14 22 -34t23 -42t18.5 -44t7.5 -40zM587 125q0 -13 -1.5 -18t-4.5 -7.5t-7 -5t-9 -10.5q-4 -6 -5 -14.5t-6 -14.5q-7 -11 -22 -19.5 t-32 -15.5t-34.5 -10.5t-29.5 -3.5q-54 0 -87.5 32.5t-33.5 86.5q0 12 -6.5 24.5t-6.5 24.5q0 27 13.5 44.5t33 29.5t42.5 20t42 17q28 -19 56 -37.5t59 -30.5q2 -12 8.5 -23t13 -21.5t12 -22t5.5 -25.5z" />
<glyph unicode="@" horiz-adv-x="1362" d="M1264 343q0 -20 -9.5 -45t-24 -50t-32 -46.5t-34.5 -33.5q-9 -6 -15 -9.5t-11 -6.5t-9.5 -7.5t-9.5 -11.5q-9 -18 -26 -28.5t-39 -19.5h1q-15 -5 -24.5 -11t-20.5 -17q-26 -28 -56.5 -35t-65.5 -7q-19 0 -37.5 1t-35.5 1q-5 0 -9 -2.5t-9 -5.5h1q-8 -6 -19 -11.5 t-27 -5.5q-18 0 -33.5 3t-29.5 8q-35 10 -66.5 13.5t-51.5 7.5q-15 14 -34 20t-38.5 9t-38.5 5t-32 10q-13 7 -17.5 14.5t-11.5 14.5q-6 6 -14 10.5l-16 9t-15 9.5t-11 14q-20 4 -31 14t-21 23q-12 9 -21 16t-16.5 13t-13.5 12.5t-12 16.5q-6 16 -12 23.5t-10.5 12t-7 9 t-2.5 15.5l-2 10q-8 19 -14 32t-19 33l1 -1q-11 14 -20 35.5t-15 39.5l-11 22q-6 11 -9 21.5t-3 39.5q0 22 -4.5 46t-4.5 51q0 53 3 94.5t3 83.5q0 8 4 14.5t8.5 12.5t8.5 10.5t4 7.5v7v21t5 21q-2 6 -2 10q0 11 6 20.5t6 18.5q0 30 8 61t28 54v-1q8 9 13 16t9.5 13.5 t9.5 13.5t13 17q22 29 34.5 55t33.5 49l10 11q8 8 13 12t11 7q14 6 22.5 16t18.5 23q9 12 23 23t31 20t36 14t38 5q10 6 27.5 12t37 11.5t36.5 9t26 3.5q28 0 65.5 1t70.5 1q8 0 17.5 -2.5t20.5 -5.5q3 -2 11 -3t18 -3.5t20 -5.5t17 -7l67 -21q3 -2 11.5 -7.5t18.5 -14 t19.5 -19t14.5 -21.5q2 -5 12.5 -13t22.5 -16t23 -15.5t16 -11.5q9 -8 20.5 -16t21.5 -18t16.5 -20.5t6.5 -22.5q13 -11 21 -22t13.5 -23t11 -25t15.5 -29q2 -2 5 -5.5t3 -5.5q12 -12 16 -25l-1 1q2 -5 2 -8.5v-8.5q0 -6 -0.5 -11.5t-0.5 -11.5q0 -13 4.5 -25.5t10 -25.5 t10 -27.5t4.5 -32.5q0 -32 -4.5 -61.5t-4.5 -60.5q0 -5 1 -9t1 -7.5t1 -5.5v2q3 -11 3 -26q0 -22 -7 -44t-16.5 -41.5t-19.5 -36.5t-15 -30l-8 -26q-11 -15 -19.5 -18.5t-13.5 -13.5q-1 0 -2 -7t-6 -15q-11 -11 -16.5 -15.5t-8.5 -6.5t-4 -4t-2 -8q-6 -15 -13.5 -23 t-15.5 -12t-15.5 -5.5t-11.5 -3.5h1q-18 -9 -30 -14.5t-22.5 -9.5t-22.5 -7.5t-32 -7.5l-18 -4h1q-7 -2 -14 -5t-16 -3q-31 0 -54.5 12t-39.5 26t-24 26.5l-8 12.5l-12 -4q-6 -2 -11 -3t-9 -2.5t-8 -5t-9 -10.5q-11 -15 -27 -24t-34.5 -13t-37.5 -5t-36 -1q-23 0 -46.5 2.5 t-44.5 11.5l1 -1q-6 2 -12 5t-12 8l1 -1l-15 7.5t-15 3.5h-5q-8 14 -16.5 24t-16.5 20v-1q-17 19 -30.5 40.5t-13.5 54.5q0 16 3 30q-8 16 -8 38q0 14 2 26.5t5 24.5v-1q0 1 1 1.5t1 2.5q-5 8 -9 16.5t-4 17.5q1 17 6 32.5t13 32.5l8 16q-1 6 2 19t9 30t14.5 35.5t18.5 33.5 l-1 -1l29 51q9 24 32 50.5t54.5 49t68.5 37.5t73 15q48 0 92 -12.5t84 -35.5q8 -13 16 -22t20 -13q6 3 10.5 11.5t10.5 17t16.5 15.5t29.5 7q24 0 42.5 -19.5t18.5 -42.5q0 -13 -4.5 -23t-11 -19t-14 -19t-14.5 -23v1q-5 -9 -9 -21.5t-4 -23.5q0 -1 0.5 -1t0.5 -1 q-1 -2 -1.5 -6.5t-5.5 -15.5q-12 -26 -19 -38.5t-11.5 -22t-6 -23.5t-1.5 -43q0 -17 -4 -28.5t-10 -21.5t-11.5 -26.5t-9.5 -35.5t-6.5 -39t-2.5 -37q0 -11 1.5 -22t7 -19t16.5 -13t31 -5q25 0 45 10.5t36.5 26t31 33.5t28.5 33q-1 3 -1 7q0 20 10.5 34.5t24.5 25.5 q0 26 6 55.5t6 60.5q0 6 -3.5 13.5t-7.5 15t-7.5 15.5t-3.5 15q0 13 3.5 25t3.5 20t-3 20v-1q-2 5 -3 11.5t-1 14.5q0 9 2 15t2 10q0 5 -2 8l-4 6l-10 14q-6 13 -8 23.5t-3.5 20.5t-3 19.5t-6.5 19.5q0 4 -11.5 15.5t-17.5 25.5q0 2 -1 12.5t-5 24t-10.5 27t-17.5 21.5v-1 q-9 4 -16.5 12t-15.5 16l-11 11q-2 1 -8.5 4.5t-15.5 8.5t-18.5 11.5t-16.5 14.5v-1q-26 19 -53.5 29.5t-56 14.5t-59 4.5t-62.5 0.5q-14 0 -32.5 -6.5t-37.5 -6.5q-2 0 -9.5 -4.5t-17 -9.5t-19 -10.5t-15.5 -6.5q-23 -6 -45 -18.5t-41.5 -30t-35 -38.5t-24.5 -43 q-12 -7 -25 -21t-25 -32.5t-23 -39t-18 -39.5v-2v-10q1 -16 -3.5 -26.5t-9.5 -21.5l-11 -22v-11q0 -22 -7 -39t-12 -38q0 -9 2.5 -24.5t2.5 -20.5q0 -11 -3 -18t-6.5 -13t-6.5 -11t-3 -12q0 -8 2 -16t4 -15l6 -19q3 -11 2.5 -18t0.5 -15q0 -19 -1 -35t-1 -32 q0 -15 1.5 -22.5t4.5 -12.5t6.5 -10.5t7.5 -15.5l4 -16q0 -13 4 -25.5t9.5 -26t11 -27.5t8.5 -29l30 -31q5 -20 16 -36t23.5 -31t24 -30.5t18.5 -33.5q13 -9 26 -14.5t25 -11t23.5 -12.5t20.5 -18q40 -5 74.5 -16t71.5 -11q16 0 31.5 -3.5t30 -7.5t29 -7.5t28.5 -3.5 q12 0 17.5 2.5t10.5 7.5l14 10q18 6 32 8l28 4q30 3 48 10.5t45 21.5h-1l27 15q19 11 35.5 29t36.5 24q7 12 17 23.5t21 23.5q15 15 25.5 36t20.5 39.5t22 32t31 13.5q26 0 39.5 -15t13.5 -42zM822 811q0 16 -2 44.5t-8 56t-16.5 48t-27.5 20.5h-67q-6 0 -18 -6t-25.5 -16.5 t-27.5 -24.5t-24 -31q-3 -4 -5.5 -15t-5.5 -23.5t-6 -23.5t-6 -15q-11 -13 -17.5 -19.5t-9.5 -11t-4 -10t-1 -15.5q0 -20 -4 -33t-17 -30q-6 -9 -8 -18t-2.5 -18.5t-1.5 -19t-6 -17.5q5 -10 5 -26q0 -8 -1.5 -16.5t-1.5 -15.5q0 -13 5.5 -29t11.5 -30t10.5 -23.5t3.5 -9.5v2 q10 -5 15 -9t9 -6.5t9 -4t16 -1.5q28 0 57.5 10.5t49.5 36.5q6 6 9.5 19.5t8.5 19.5q5 9 17.5 25t25 34.5t22 39t9.5 39.5q0 13 4.5 27.5t10 30t10 32t4.5 33.5z" />
<glyph unicode="A" horiz-adv-x="1126" d="M1126 71q0 -11 -6 -21.5t-15 -19t-20 -14t-21 -5.5q-7 0 -14 1t-14 1q-9 0 -12 -5.5t-5.5 -11.5t-7.5 -11.5t-18 -5.5q-8 0 -17 2t-18 2q-19 0 -36.5 -7.5t-37.5 -7.5q-17 0 -51 5.5t-68.5 17t-60.5 28t-26 38.5q0 17 19.5 34.5t43.5 39t43.5 48.5t19.5 63q0 21 -8.5 41 t-21.5 37.5t-29.5 32.5t-31.5 28q-5 2 -15 2q-27 0 -54 -5.5t-54 -5.5q-14 0 -28.5 4t-19.5 20q-26 -13 -52 -24.5t-53 -20.5q-17 -6 -24.5 -9t-11 -7t-5 -12t-7.5 -23q-4 -10 -4 -18v-18q0 -13 -5 -20.5t-10.5 -14t-10.5 -13.5t-5 -18q0 -9 3 -16l-1 -5q0 -15 8 -23.5 t19.5 -13t24.5 -8.5t23 -10t19.5 -19.5t17 -29t12.5 -31t5 -26.5v-5h-13q-40 0 -79.5 -3.5t-78.5 -8t-78.5 -8t-79.5 -3.5q-14 0 -40.5 1t-52.5 5.5t-45.5 15t-19.5 30.5q0 21 9.5 35t25 23.5t35 16t39 12.5t37 12t29.5 16t20 32.5t13 48.5t9 51.5t7 40.5q1 5 1.5 12.5 t1 15.5t1 15t2.5 10q10 17 15.5 20t8 5t3 10.5t0.5 35.5q0 12 5 18.5t10.5 11.5t10.5 9.5t5 12.5q0 14 -8 25.5t-8 25.5q0 8 4 14t9.5 11t9.5 10.5t4 13.5q0 11 -4.5 22t-4.5 22q0 8 5.5 11.5t12 5.5t12 3.5t5.5 4.5q-3 6 -11 6q-12 0 -12 -13q-7 5 -12 11.5t-5 14.5 q0 10 5 18.5t11.5 19.5t11.5 25t5 34q0 21 -6 40.5t-6 39.5q0 10 4.5 20t11 19.5l13 19t9.5 20.5q6 19 6.5 40l1 42t3 41.5t12.5 38.5q9 16 14 26t9 19.5t7 21t6 30.5q5 29 15.5 56t14.5 56q2 22 2.5 37.5t5 27.5t16 21t35.5 18q26 9 52 12.5t52 3.5q30 0 62 -3 q3 -17 13 -30.5t21.5 -26.5t22 -26.5t14.5 -30.5q5 -23 6.5 -43.5t16.5 -40.5q7 -11 7 -26q0 -23 -6 -44t-6 -43q0 -13 8 -43t19 -64.5t21 -67t15 -50.5q9 -38 9.5 -78t12.5 -78q12 -40 21 -79.5t12 -81.5q2 -39 10 -75.5t17 -73t16.5 -73.5t7.5 -77q0 -15 -2.5 -31 t-13.5 -28q21 -25 47.5 -54t52.5 -46q10 -6 31 -9t42.5 -7.5t38 -13t16.5 -24.5v0zM707 610q0 9 -7 23.5t-15.5 32.5t-15.5 39t-7 44q0 27 -8 53.5t-11 53.5q-2 22 -4.5 48.5t-10.5 50t-24.5 39t-47.5 15.5q-2 -8 -7 -11.5t-11.5 -6t-13.5 -4.5t-11 -7q1 -3 1 -9 q0 -18 -7.5 -33.5t-13.5 -31.5q-7 -17 -9.5 -35.5t-2.5 -36.5q0 -16 1 -31t1 -30q0 -23 -4 -39.5t-9 -30.5t-9 -26.5t-4 -26.5q0 -30 2 -52t9 -36.5t20 -22t36 -7.5q16 0 46.5 4t61 13.5t53 24.5t22.5 36z" />
<glyph unicode="B" horiz-adv-x="1237" d="M1138 414q0 -7 0.5 -18.5t0 -23t-2 -21t-5.5 -13.5q-9 -9 -19 -11.5t-20.5 -3t-21 -2t-20.5 -7.5q2 -10 9.5 -12.5t16 -4t15 -6t6.5 -17.5q0 -21 -6.5 -34.5t-15.5 -24t-18 -21.5t-14 -28q-6 -18 -15 -26t-19.5 -12.5t-21.5 -9.5t-21 -18q-11 -12 -18 -12q-3 0 -7 1 t-10 1q-5 0 -9.5 -3.5t-4.5 -8.5q0 -2 2 -2t1 -1q-12 -11 -43 -25.5t-71 -27t-83.5 -21t-82.5 -8.5q-68 0 -134.5 3.5t-135.5 3.5h-133q-3 0 -8.5 -6t-12.5 -6q-11 0 -28.5 3t-34.5 10t-29.5 17.5t-12.5 24.5q0 5 1 8.5t2 8.5q9 28 25 42.5t34.5 25t38 21.5t35 31t25.5 54 t10 91q0 52 -6.5 103t-6.5 103q1 96 4.5 190t4.5 190l1 157q0 25 -1.5 58t-10 63.5t-27 52t-52.5 24.5q-17 1 -39 9t-41.5 21.5t-33.5 30.5t-14 37q0 17 10 28.5t24 19t30.5 11t30.5 3.5q32 0 63 -6.5t64 -6.5q41 0 82.5 4t82.5 9.5t82.5 9.5t83.5 4q35 0 70 -2.5t70 -4.5 q6 -8 21 -13t32.5 -9t34.5 -6.5t26 -4.5q24 -5 41.5 -10.5t30 -15t22 -24.5t17.5 -39q1 -3 9.5 -9t19.5 -12t21 -12t14 -10q13 -13 26.5 -39.5t24.5 -56.5t18 -59t7 -47q0 -37 -10.5 -74t-21.5 -72q-7 -21 -20.5 -40t-26.5 -38.5t-22.5 -39.5t-9.5 -42q0 -31 13 -62t30 -57 q7 -12 16.5 -23t19 -21.5t17.5 -22t14 -25.5q13 -32 17 -66.5t4 -68.5zM949 1025q0 11 -3 26t-7 30.5l-8 31t-6 27.5q-3 15 -9 24.5t-14 16t-18 13t-20 15.5q-25 22 -48 35t-48 20t-53 9.5t-62 2.5q-22 0 -45.5 -1t-42.5 -6q-4 -2 -5 -5t-4.5 -6t-12.5 -5.5t-28 -2.5 q-29 0 -47.5 -8t-29 -22.5t-14.5 -35t-5 -46.5q-1 -33 -1.5 -68t-3.5 -69.5t-10.5 -67.5t-23.5 -64q56 -14 114 -22t114 -8q39 0 78.5 3t77.5 10q14 3 37.5 11t46 20t40 27t19.5 31q2 12 8.5 22t14 19.5t13.5 19.5t6 23zM982 357q0 26 -6.5 52t-10.5 52q-3 24 -5.5 38 t-8 24.5t-15.5 20.5t-29 26q-5 22 -10.5 26t-11.5 4q-5 0 -10.5 -0.5t-10.5 -0.5l-14 28q-19 13 -33.5 20t-37.5 9q-20 2 -39.5 8t-40.5 6q-9 0 -14 -7t-8 -7q-6 0 -14 2.5t-17 5t-18.5 5t-17.5 2.5q-45 0 -87.5 -9.5t-85.5 -20.5q-8 -21 -15.5 -46t-13.5 -51t-10 -51.5 t-4 -47.5q0 -11 2 -17.5t5 -11.5t5 -10t2 -12q0 -40 -8.5 -78.5t-8.5 -78.5q0 -26 7 -50t24 -44q20 0 38 -7.5t38 -7.5q14 0 27.5 7t21.5 7t12.5 -7t15.5 -7h4q3 5 11 8.5t18.5 5t22.5 2t23 0.5q21 0 32.5 -1t26.5 -1q42 9 80 22q32 11 65.5 28t52.5 40q10 10 22.5 25 t23 31.5t18 34t7.5 34.5z" />
<glyph unicode="C" horiz-adv-x="1186" d="M1086 534q0 -20 -1.5 -40.5t-6.5 -40.5q-4 -17 -10.5 -31.5t-8.5 -31.5q-2 -10 -4 -21.5t-15 -11.5l-8 1q-16 0 -24 -12.5t-12.5 -30t-7 -35.5t-5.5 -29t-3.5 -19.5t-1 -15t-4.5 -13.5t-14 -15q-16 -12 -31 -23t-27 -26q-9 -11 -12 -19t-6 -15t-9.5 -12.5t-21.5 -10.5 q-23 -8 -44 -18t-43 -18q-26 -10 -49 -22.5t-47 -23.5t-49.5 -18.5t-54.5 -7.5q-26 0 -51.5 8t-47.5 22q-21 2 -32 15t-18 31q-6 14 -11.5 20t-12 8.5t-14.5 4.5t-19 9q-45 29 -82 72.5t-69 87.5q-7 10 -10.5 23.5t-6.5 27t-6.5 26t-10.5 19.5q-13 13 -23 14t-16.5 4.5 t-10 17t-3.5 50.5q0 23 -4 48t-9.5 51.5t-9.5 54t-4 54.5q0 29 3.5 58t8.5 58t10 57.5t7 57.5q2 27 2.5 55t2 56t5.5 55t14 53q10 28 25.5 53t30.5 50t28 51t20 56q4 19 25 35.5t52 31t67.5 26t72.5 20t66.5 13t49.5 4.5q50 0 94 -12.5t89 -32.5q20 -9 43.5 -14.5t44.5 -5.5 t31.5 7.5t16.5 18t10 20t12 14.5l-3 -1q2 2 7 2.5t11 0.5q8 -1 19.5 -4t23.5 -7t22.5 -8.5t15.5 -8.5q3 -2 10 -13t14.5 -24t13 -24t5.5 -14q0 -25 7.5 -47t7.5 -47q0 -26 -7.5 -51t-7.5 -51q0 -32 1.5 -62.5t1.5 -62.5q0 -29 -2.5 -57.5t-8.5 -56.5q-2 -8 -4 -19t-5.5 -21 t-9 -17t-14.5 -7t-16 3q-5 -1 -9 -1.5t-9 -0.5q-9 0 -11 3t-2 7.5t-1.5 10t-10.5 10.5q-6 4 -16 5t-19.5 2.5t-16.5 6t-7 14.5q0 11 4.5 11.5t11 -3.5t14.5 -7.5t15 -0.5q-14 16 -24.5 33.5t-21 35.5t-21.5 36t-25 33q-12 13 -20 30t-15.5 34.5t-16 33t-21.5 25.5 q-46 35 -101.5 61.5t-115.5 26.5q-42 0 -77.5 -12.5t-70.5 -33.5q-14 -8 -26.5 -14t-24 -13.5t-20 -18t-12.5 -28.5q-5 -18 -4.5 -37t-9.5 -35q-5 -8 -15.5 -13t-13.5 -15q-8 -23 -9.5 -48t-2 -51t-1.5 -52.5t-8 -50.5q-6 -20 -8.5 -40t-2.5 -40q0 -38 2.5 -74.5t2.5 -73.5 q0 -45 4.5 -88t16.5 -86q9 -32 25 -61.5t24 -61.5q4 -17 14.5 -36t25 -35t32.5 -26.5t37 -10.5q14 0 27 3.5t27 3.5q15 0 30 -2.5t30 -2.5q27 0 56.5 7t49.5 28q14 15 32 21t36.5 10t35.5 10.5t30 23.5q8 11 16.5 34t17.5 48t18.5 45.5t19.5 25.5q9 5 11.5 25.5t2.5 48.5v46 q0 20 1 39t4.5 34t10.5 24t19 9q11 0 17.5 -7.5t16.5 -7.5t19.5 6.5t20.5 6.5q15 0 27.5 -13t23 -29t17 -29.5t9.5 -14.5q10 -2 11.5 -16.5t1.5 -23.5z" />
<glyph unicode="D" horiz-adv-x="1275" d="M1185 643q0 -30 -6 -69.5t-16.5 -83t-24 -89.5t-28.5 -88.5t-30.5 -79t-29.5 -61.5q-6 -10 -18.5 -20.5t-25.5 -22t-23 -22.5t-10 -21q-8 -1 -25 -4.5t-35.5 -9t-34 -12t-18.5 -12.5q-11 -21 -13.5 -28t-5.5 -8.5t-11.5 -1t-32.5 -4.5q-9 -2 -22.5 -6t-28 -8t-27.5 -6.5 t-21 -2.5q-22 0 -42.5 7t-42.5 7q-14 0 -25 -4q-37 -14 -70.5 -20t-73.5 -6l-141 19q-16 -4 -32 -5.5t-32 -1.5q-20 0 -39.5 2t-39.5 5q-3 15 -9.5 28.5t-12.5 27.5t-11 28.5t-5 29.5q0 26 13 37.5t33 16t42.5 7t42.5 11.5t33 28t13 57q0 23 -3.5 46t-8 46.5t-8 46.5 t-3.5 46q0 17 3 33.5t3 33.5q0 31 -4.5 61.5t-4.5 61.5q0 36 4 71.5t4 71.5q0 34 -6.5 66.5t-6.5 67.5q0 19 1 38t1 38q0 22 -2 42.5t-8 41.5q-7 25 -8 49t-6 43.5t-19 34t-47 21.5q-11 2 -16.5 6.5t-10.5 9t-12.5 8.5t-22.5 6q-44 6 -44 49q0 24 9 42.5t23 33.5t31.5 27.5 t34.5 25.5q26 20 49 24.5t49 4.5h43q29 0 57.5 2.5t57.5 2.5q17 0 34.5 -2t34.5 -7q9 -3 17.5 -6.5t17.5 -3.5q14 0 24 8.5t18 8.5q2 0 2 -2t-0.5 -4.5t-0.5 -4.5q0 -6 8 -6q5 0 7.5 6t11.5 8q7 -3 11 -6.5t7.5 -6.5t9 -5t14.5 -2q21 0 42 3.5t42 3.5q27 0 50 -9t43.5 -22.5 t39.5 -30.5t38 -33q14 -12 28.5 -18.5t27.5 -13t25 -16t21 -28.5q10 -21 23.5 -40.5t27 -38t26.5 -38t23 -41.5q25 -57 35.5 -119.5t21.5 -123.5q5 -26 11 -52.5t6 -52.5q0 -14 -5 -27t-5 -27q0 -9 3 -16t7 -14t7 -16t3 -21zM1018 710q0 39 -11 76t-34 69q11 11 14 26t3 29 q0 15 -1.5 30t-1.5 29q0 8 -5.5 14t-12 11.5t-13.5 11t-10 13.5q-4 10 -5.5 17.5t-2.5 14.5t-4 15t-10 19q-5 8 -8 15.5t-3 18.5q0 10 3 21q-4 8 -13 13.5t-20 8.5q-12 4 -27 6q-15 0 -31.5 9t-34.5 20t-36.5 20t-37.5 9q-29 0 -57 -5t-57 -9q-22 -3 -48 -3.5t-48.5 -5.5 t-37.5 -18.5t-15 -42.5q0 -35 4.5 -71t4.5 -74q0 -79 -6.5 -157.5t-6.5 -158.5q0 -37 4 -73.5t4 -74.5q0 -49 -7.5 -97t-7.5 -97v-43t4 -44t15 -38t33 -25q31 -11 61.5 -21.5t64.5 -10.5q20 0 39 9.5t39 15.5q13 4 29.5 7.5t32.5 8t30.5 12t24.5 18.5q15 17 29 30t39 18 q12 2 15.5 8.5t5 15t4.5 18t13 16.5q16 12 24.5 28t12.5 34t6.5 36.5t7.5 36.5q11 40 25.5 81t14.5 83q0 11 -5 19.5t-5 19.5q0 6 2.5 7.5t5.5 4t5.5 7.5t2.5 19z" />
<glyph unicode="E" d="M1202 998q0 -4 -5 -16t-11.5 -26t-13.5 -26t-11 -16l2 -1q-2 0 -4 -1h-5q-4 -1 -8.5 -1h-9.5l4 1q-23 1 -41.5 8.5t-30.5 28.5q-2 4 -6 14.5t-8 22.5t-6.5 22.5t-2.5 15.5q0 8 1.5 17t1.5 17q0 31 -6 61t-6 61q0 20 5 39t18 35h-5q-12 0 -19 7.5t-23 7.5q-38 0 -74 -9 t-76 -9q-16 0 -32 0.5t-33 0.5q-31 0 -61 -7t-58 -7q-3 0 -3 1q0 2 7 5.5t7 5.5q0 4 -6.5 4h-8.5q-8 0 -13.5 -8t-16.5 -11q-15 -4 -32 -4h-33q-10 0 -29 1t-38 4.5t-34.5 11t-17.5 21.5q-11 -3 -14.5 -10.5t-6 -15.5t-7.5 -14.5t-20 -7.5q-28 -2 -36 -18t-8 -36 q0 -11 1 -22t1 -22q0 -40 -1.5 -79.5t-1.5 -79.5q0 -17 0.5 -45.5t4 -56t10.5 -49t20 -24.5q8 -2 17 -2.5t18 -0.5q35 0 68.5 8t68.5 8q14 0 26.5 -4t25.5 -4q19 0 29.5 18.5t15 43t5.5 49.5t1 37q0 25 -1.5 49.5t-1.5 49.5h6q25 0 47 -8t46 -8q10 0 15 1q0 -20 7 -40t7 -41 q0 -26 -28 -33q8 -14 13 -28t5 -29q0 -11 -2 -21.5t-2 -21.5q0 -10 6.5 -15.5t6.5 -12.5q0 -12 -9.5 -30t-9.5 -37q0 -22 4 -46t9 -50t9 -52.5t4 -53.5q0 -16 -1.5 -33t-7 -32.5t-15 -28.5t-24.5 -22q-19 2 -32 11.5t-21.5 23t-13 30t-6.5 33.5q-4 26 -4 48t-9.5 37.5 t-36 24.5t-82.5 9q-16 0 -45.5 -3t-58.5 -10.5t-50.5 -21.5t-21.5 -35q0 -12 2.5 -23.5t2.5 -23.5q0 -10 -1 -20t-1 -21q0 -27 3 -53.5t3 -53.5q0 -29 -7.5 -57t-7.5 -57q0 -32 15.5 -50.5t39.5 -28t52 -12.5t52 -3q48 0 96 6t96 6q30 0 60 -3t60 -3q23 0 51 1.5t53.5 9.5 t44 23.5t23.5 44.5q1 8 5.5 11.5t10 6t9.5 5.5t4 10q0 8 -6 18.5t-8 19.5q-4 19 -4.5 38.5t-0.5 38.5q0 30 9.5 52.5t9.5 49.5q0 8 -0.5 15t-0.5 15q0 6 9 12t21 10.5t24 7.5t18 3q25 0 41 -17.5t24.5 -42.5t11.5 -52t3 -46q0 -31 -5 -70t-13.5 -80t-19.5 -79.5t-22 -67.5 q-6 -14 -11.5 -21t-12 -11.5t-14 -9t-16.5 -14.5q-8 -9 -30.5 -12t-47.5 -3q-19 0 -36 1t-26 1q-33 0 -53.5 -8t-38.5 -8q-13 0 -17 5.5t-12 5.5q-7 0 -13 -6t-18 -6t-24.5 0.5t-25.5 0.5q-75 0 -149 -4.5t-149 -6.5q-51 -2 -101 -12t-101 -10q-18 0 -41 3.5t-43.5 12.5 t-34.5 24.5t-14 38.5q0 22 16 42t38.5 37t46.5 31.5t39 27.5q-1 8 -1 15v14q0 15 0.5 30t5.5 30q2 9 10.5 21.5t8.5 21.5q0 7 -2.5 13t-4.5 13q-11 27 -15.5 48t-4.5 51q0 18 0.5 31.5t2 26t5 26t9.5 30.5q-4 7 -9 21t-5 22l14 142q-1 3 -1 10q0 9 3 18t3 19q0 23 -8 45.5 t-8 45.5q0 8 4 19t8.5 24t8.5 28.5t4 33.5q0 14 -6.5 24t-6.5 23q0 12 6 24t6 26q0 20 -7.5 38.5t-15.5 35.5q-12 25 -18.5 40.5t-15.5 25t-24.5 14t-44.5 6.5q-14 1 -26.5 8.5t-22 19.5t-15.5 26t-6 27q0 18 16 30.5t41 20t56 12t60.5 7t54 3.5t37.5 3q20 3 39 4t39 1 q39 0 78.5 -2.5t78.5 -2.5q42 0 82.5 8t82.5 8q38 0 75 -8.5t73 -8.5q35 0 69 8.5t69 8.5q15 0 30 -3q22 -24 40.5 -40t32 -32.5t22 -38.5t11.5 -58q1 -13 1 -31.5t1 -36t5.5 -31.5t14.5 -17q0 -14 -14 -14q1 -14 6 -28.5l10 -29t9 -29t4 -27.5zM336 752q-6 0 -11 -2t-7 -9 q38 -22 60.5 -41.5t35 -31.5t18.5 -13.5t12 12.5q8 18 -2.5 34t-29 27t-40 17.5t-36.5 6.5z" />
<glyph unicode="F" horiz-adv-x="1240" d="M1218 1037q0 -43 -24.5 -67t-66.5 -24q-14 0 -27 2.5t-26 6.5q-17 23 -24.5 55.5t-13 67t-12.5 68t-21.5 60t-40 43t-68.5 16.5q-27 0 -53.5 -5.5t-54.5 -5.5q-14 0 -33 0.5t-38.5 3t-37.5 6.5t-30 12q-3 2 -9.5 3t-14 1.5t-15 0.5h-10.5q-30 0 -47.5 -3t-31 -8 t-28 -11.5t-40.5 -13.5q-19 -5 -27.5 -12t-11.5 -16.5t-2.5 -22.5t-0.5 -30q-1 -12 -1.5 -23.5t-0.5 -23.5q0 -36 2 -72t2 -73q0 -23 -4.5 -45t-4.5 -45q0 -21 9 -29t20 -12t20.5 -9t9.5 -20q7 -1 13.5 -1.5t13.5 -0.5q33 0 66 9.5t65 17.5q20 5 29 29t12 54.5t3 60.5t3 46 q2 13 9.5 25t18.5 21t24 14.5t26 5.5q14 0 25 -6q22 -11 31.5 -27.5t12.5 -36.5t2.5 -41t1.5 -41q3 -27 3 -53q0 -48 -4.5 -94t-4.5 -94q0 -26 3 -51t11 -50q5 -18 5 -33q0 -17 -3.5 -33t-3.5 -33q0 -10 1.5 -18.5t1.5 -18.5q0 -15 -7.5 -31.5t-18.5 -30t-25.5 -22.5 t-27.5 -9q-18 0 -33.5 14.5t-27.5 32.5t-18.5 34t-6.5 19q0 5 4.5 7.5t9.5 5t9.5 6t4.5 10.5q0 5 -4.5 7.5t-10 5t-10 7t-4.5 13.5q0 7 2 10.5t5 5.5t5 4t2 5q0 8 -7 20.5t-17.5 24.5t-23 20.5t-22.5 8.5q-15 0 -29.5 -5.5t-30.5 -5.5q-13 0 -24.5 5t-22.5 5q-10 0 -22 -8.5 t-23.5 -20t-22 -23t-16.5 -18.5q-8 -8 -9 -23.5t-1 -26.5q0 -35 4.5 -68.5t4.5 -68.5q0 -15 -0.5 -30t-0.5 -30q0 -12 0.5 -31t4.5 -38t12 -34t22 -19q21 -7 47 -5h20q26 0 49 -5t35 -26q10 -17 14.5 -37.5t4.5 -40.5q0 -12 -2.5 -27t-9 -27.5t-17 -21t-25.5 -8.5 q-29 0 -61.5 6.5t-64.5 6.5q-25 0 -49 -6q-39 -11 -78 -14t-81 -3q-19 0 -45 1t-49.5 6.5t-40 16t-16.5 29.5q0 21 3 45t12.5 44t26.5 33t45 13q8 0 17 -1t18 -1q19 0 28 6.5t15 14.5t12 15t18 9q-2 32 -5.5 62.5t-3.5 62.5q0 27 5 53t18 50q-10 11 -15 38t-6.5 55 t-1.5 48.5t0 19.5q0 17 5.5 33.5t5.5 33.5q0 8 -1.5 14.5t-1.5 14.5q0 12 2 17t5 7t5 4.5t2 10.5q0 25 -6.5 49.5t-6.5 50.5q0 23 4.5 45.5t4.5 45.5q0 45 -4.5 89.5t-4.5 90.5q0 23 -4 51.5t-15 53.5t-30 42t-48 17q-14 0 -27.5 -1.5t-27.5 -1.5q-13 0 -25 2.5t-23 10.5 q-2 19 -9 37t-7 37q0 14 11.5 23t29.5 14t40.5 7t45.5 2q29 0 54.5 -1.5t38.5 -1.5q14 0 34.5 1t41 4.5t37.5 11.5t25 23q12 0 21 -4.5t18 -10t18 -10t20 -4.5q14 0 26.5 6.5t26.5 6.5q13 0 23 -5.5t23 -5.5q27 0 53.5 6t53.5 12.5t53.5 12.5t53.5 6q19 0 35.5 -5.5 t30.5 -19.5q41 17 90 17q6 0 26 -2t42 -4.5t40 -5.5t20 -6q6 -5 9 -17t5.5 -25.5t5.5 -26t9 -18.5q4 -4 10.5 -5.5t12.5 -3.5t10.5 -5.5t5.5 -11.5q2 -24 3 -46.5t8 -46.5q6 -21 14 -44t15.5 -46t12.5 -46t5 -45zM163 72q0 16 -6.5 28t-23.5 14q0 -4 -0.5 -7.5t-0.5 -7.5 q0 -16 6.5 -28t23.5 -14q0 4 0.5 7.5t0.5 7.5z" />
<glyph unicode="G" horiz-adv-x="1260" d="M1200 677q0 -6 -2 -17.5t-6 -22.5t-10 -19.5t-14 -8.5q-4 0 -7 1t-7 1q-7 0 -12.5 -6.5t-12 -15t-15 -15t-21.5 -6.5q-5 0 -15 2q4 -20 6 -40t2 -40q0 -32 -4 -62.5t-9 -61.5t-9 -62t-4 -62q0 -37 5.5 -73t5.5 -73q0 -16 -3 -33.5t-10.5 -32.5t-20.5 -25t-32 -10 q-28 0 -43.5 17.5t-26 38t-19 38t-22.5 17.5q-7 0 -17.5 -7.5t-23.5 -17.5t-28.5 -19t-31.5 -12q-19 -4 -26 -11t-14 -13.5t-20.5 -11.5t-46.5 -5q-22 0 -43.5 2t-43.5 2q-16 0 -31.5 -2t-31.5 -2q-25 0 -41 4.5t-28.5 11.5t-26 14.5t-34.5 13.5q-16 5 -26 8.5t-18 8t-16 11 t-21 17.5q-8 6 -18 12t-19 12.5t-15.5 14.5t-7.5 20q-1 9 -3 13t-5.5 6t-8 3.5t-11.5 5.5q-12 18 -18 37t-12 37.5t-15 36t-27 32.5q3 10 3 22q0 21 -8 40.5t-17.5 39t-17.5 40t-8 43.5q0 14 2.5 28t2.5 28q0 19 -4.5 37t-9.5 35.5t-9.5 35.5t-4.5 37q0 6 0.5 12.5t1.5 12.5 q6 36 9 73t6 73.5t7 73t12 72.5q8 35 14.5 69t6.5 69q8 11 21.5 23t27 24.5t24 26t13.5 26.5t16.5 32t31 38t36 33t31.5 16q6 1 13.5 1t14 2t11.5 6t5 13q0 7 -3 15q54 5 107 17t107 12q12 0 38 -1t52.5 -6.5t46.5 -16t20 -28.5v-5q3 1 6.5 1h6.5q16 0 31 -6t31 -6t33.5 1.5 t35 6t32 12.5t24.5 20q22 0 36 -21.5t22 -50.5t11.5 -58.5t3.5 -45.5q0 -24 -3.5 -48t-12.5 -47q2 -13 8.5 -23t14 -19.5t13.5 -20t6 -23.5q-7 -18 -8.5 -51.5t-6 -67t-17 -58t-41.5 -24.5q-20 0 -34 13.5t-21 30.5l2 -1q13 0 13 12q0 3 -6.5 8t-14.5 10.5l-16 11t-12 10.5 q-8 10 -15 26t-12 34.5t-8 37t-3 34.5v9t1 8l-1 -1q-3 1 -12.5 13t-21 26.5t-22 28t-14.5 18.5q-20 20 -43 36t-43 36q-8 -5 -16.5 -8.5t-17.5 -3.5q-8 0 -13 3.5t-10 8t-11 8.5t-16 4q-22 0 -42.5 -5t-42.5 -5q-23 0 -45.5 9t-46.5 9q-2 0 -5.5 -1t-5.5 -2q1 -9 5 -17 t4 -17q0 -14 -11.5 -27t-27 -25t-31 -23.5t-23.5 -21.5q-11 -14 -17.5 -30t-12.5 -31.5t-15.5 -29.5t-26.5 -23q8 -21 8 -40q0 -14 -2 -26.5t-2 -26.5q0 -32 5 -63.5t5 -63.5q0 -26 -4.5 -51.5t-10.5 -51t-10.5 -51t-4.5 -51.5q0 -23 5.5 -44t12.5 -41t12.5 -38t5.5 -34 q0 -11 -2 -22t-2 -22q0 -43 19 -72.5t43.5 -55.5t47.5 -52.5t31 -63.5q15 3 29 3q18 0 36 -4t35 -9.5t35 -9.5t36 -4q38 0 77.5 15.5t73 41.5t58.5 60t34 71q8 36 23 68q6 12 12 15t11 4t8 2t3 7t-6.5 11t-6.5 13q0 3 4 7.5t9.5 10.5t9.5 14.5t4 18.5q0 21 -12 34t-30 22.5 t-38.5 17t-38.5 18.5t-30 27.5t-12 43.5q0 22 11.5 36.5t29 23.5t37.5 13.5t38 7.5q12 2 26 7.5l28 11t26.5 10t22.5 4.5q14 0 28 -5.5t28 -7.5q19 -3 47.5 -8t54.5 -15t44.5 -26.5t18.5 -43.5z" />
<glyph unicode="H" horiz-adv-x="1337" d="M1273 56q0 -15 -14.5 -25t-37 -16t-49.5 -9.5t-53.5 -5t-48 -1.5h-32.5q-26 0 -47 -6t-39.5 -13t-34.5 -13t-32 -6q-14 0 -23.5 9t-23.5 9q-16 0 -30 7t-25 18.5t-17.5 26.5t-6.5 30q0 19 9.5 32t24.5 21.5t32.5 12t33.5 3.5q14 0 27 -3.5t24 -12.5q1 15 8 25.5t15 20 t14.5 20.5t6.5 27q0 26 -3 52.5t-3 52.5q0 17 3.5 34t3.5 35q0 20 -2.5 41t-2.5 42q0 20 6 33t6 24q0 21 -7 42.5t-19 39t-28 30t-33 15.5q-50 9 -100 9q-14 0 -26 -4.5t-19 -4.5q-6 0 -14 4.5t-11 4.5q-13 0 -26.5 -4.5t-27.5 -9.5t-28 -9.5t-27 -4.5q-22 0 -45.5 -0.5 t-46 -4t-43 -13t-36.5 -27.5v-7q0 -20 1 -38.5t1 -38.5q0 -23 -3 -43t-14 -41q-3 -8 -3 -14q0 -16 6 -30.5t6 -30.5q0 -7 -5 -15t-5 -17q0 -14 4.5 -27t10.5 -26.5t11 -26.5t7 -27q3 -29 20.5 -43.5t40.5 -23t48.5 -15.5t44.5 -20q-2 -10 -2 -15q0 -17 6 -32t6 -32 t-12.5 -27t-30.5 -14.5t-36.5 -5.5t-30.5 -1q-2 0 -8 1.5t-12.5 4t-12.5 4.5l-9 3q-56 -11 -114 -14t-115 -3q-15 0 -39 2.5t-47.5 10t-40 21t-16.5 35.5q0 10 3 23.5t9 26.5t14 24t18 16q22 10 49.5 15.5t52 18t41.5 38.5t17 78q0 26 -2 51t-2 51q0 14 1 28.5t1 28.5 q0 43 -4.5 85.5t-4.5 85.5q0 18 3 36.5t3 35.5q0 25 -7 49t-7 48q0 5 1 7q4 5 7 20.5t5.5 33.5t4 34t1.5 24q0 24 -4.5 47.5t-4.5 47.5q0 14 2.5 28.5t2.5 28.5q0 6 -2 7.5t-5 2.5t-5 3.5t-2 11.5q0 8 9 20.5t9 23.5q0 9 -6 25.5t-15.5 33.5t-20 31t-19.5 19 q-19 9 -43.5 13.5t-46.5 12t-37 22.5t-15 45q0 27 15 44.5t37.5 28.5t48.5 15.5t47 4.5q15 0 33.5 -1.5t37 -5.5t36 -9.5t30.5 -12.5q24 8 49 13t51 5q15 0 32.5 -3t32 -12t24 -24.5t9.5 -40.5q0 -11 -3 -17.5t-10 -6.5q-27 0 -54.5 -12.5t-50.5 -33.5t-37.5 -47.5 t-14.5 -53.5q0 -13 3 -25q9 -31 15 -61t6 -62q0 -27 -4 -53.5t-4 -53.5q0 -35 16.5 -56.5t42.5 -33.5t56.5 -16t59.5 -4t58 2.5t59 2.5t59 -7.5t59 -7.5q11 0 22 1.5t19 6.5q3 2 9.5 7t14 9.5t14 8.5t9.5 4q17 3 26 20t13.5 38.5t5.5 44t1 36.5q0 16 -5 31t-11.5 29.5 t-11.5 29.5t-5 32q0 20 3.5 40.5t3.5 40.5q0 42 -15.5 63t-38.5 31t-50.5 13t-50.5 9.5t-38.5 20.5t-15.5 46q0 21 9 33t23.5 18.5t31.5 8.5t33 2q32 0 62.5 -4t62.5 -4q30 0 66 6t73 6q20 0 47 -2.5t52 -10.5t42 -24t17 -44q0 -19 -10 -30.5t-25 -20t-34 -14.5t-37 -12.5 t-33 -15t-22 -22.5q-7 -12 -8.5 -27t-1.5 -29q0 -26 2.5 -51t2.5 -51q0 -90 -6 -178.5t-6 -177.5q0 -31 0.5 -61.5t3.5 -61.5q2 -29 11 -56.5t9 -56.5q0 -14 -3 -22t-6.5 -14t-6.5 -11t-3 -11q0 -17 8 -33t8 -33q0 -22 -4.5 -44t-4.5 -44q0 -2 3.5 -15.5t8 -29.5t9.5 -30 t8 -17q12 -12 29 -18t36 -10.5t37.5 -9.5t32.5 -15q10 -7 22.5 -18.5t12.5 -25.5z" />
<glyph unicode="I" horiz-adv-x="1014" d="M960 1324q0 -11 -7.5 -20t-18 -17.5t-21.5 -15.5t-18 -13q-17 -14 -41 -14q-16 0 -30.5 4t-30.5 4q-7 0 -11 -3q-13 -8 -25 -9t-26 -1q-8 0 -21.5 7.5t-14.5 15.5l7 7q-11 -4 -15 -9t-5.5 -11t-2.5 -13t-5 -14q-5 -10 -15.5 -12t-21 -9t-18.5 -25.5t-8 -61.5q0 -19 2 -37 t2 -36q0 -36 -6 -71.5t-6 -72.5q0 -22 -6.5 -42t-6.5 -42q0 -31 26 -43q-7 -3 -11 -15.5t-6.5 -28t-3 -30t-0.5 -20.5v-11t1 -14.5t2 -14t4 -9.5q8 -8 8 -20t-4 -23.5t-4 -23.5q0 -49 6.5 -97.5t6.5 -97.5q0 -32 -6.5 -64t-6.5 -64q0 -29 10 -46t27 -26t39 -12t46 -3 q38 0 75.5 6.5t74.5 6.5t57.5 -23t20.5 -59q0 -27 -8.5 -50.5t-24 -41t-37.5 -27.5t-50 -10q-20 0 -45 5q-40 8 -80 11.5t-82 3.5q-35 0 -70 -1.5t-70 -1.5q-42 0 -83 1t-83 1q-15 0 -29 5t-28 5q-10 0 -23 -3.5t-27.5 -7.5t-30.5 -7.5t-32 -3.5q-37 0 -64 16.5t-27 57.5 q0 13 3 25q1 9 9.5 25t20 31.5t24 26.5t22.5 11q8 0 15.5 -4t17 -9.5t22.5 -9.5t31 -4q36 0 75 7t71.5 24.5t53.5 46t21 71.5q0 16 -2 31.5t-4 31.5q-6 52 -7 105t-1 106q0 35 9 67.5t9 67.5q0 20 -7 38t-7 37q0 9 2.5 18t2.5 19q0 22 -4.5 42.5t-4.5 41.5q0 35 7.5 70 t7.5 70q0 21 -5 42t-10.5 41t-10.5 41t-5 42q0 13 3 27q-6 14 -17 22t-24 15t-25.5 14t-19.5 20q-8 -1 -10 -7.5t-3 -14t-3.5 -14t-11.5 -7.5q-28 -3 -56.5 -5t-56.5 -2q-16 0 -39.5 2t-45 9t-36.5 20t-15 36q0 14 6.5 29.5t16 30.5t21 28.5t20.5 23.5q7 7 21 12t31.5 7 t37.5 3t40 1q25 0 46.5 -0.5t35.5 -0.5q25 0 61.5 1.5t70 4.5t58 6.5t25.5 7.5q6 -3 14.5 -9.5t18 -12.5t18.5 -11t14 -5q6 0 9.5 4.5t6 10.5t3.5 12.5t1 10.5h7q22 0 29.5 -13t7.5 -31q0 -4 -0.5 -7t-0.5 -6q10 2 14.5 9.5t7.5 15.5t7.5 14t15.5 6q4 0 12 -2h7 q22 -18 34.5 -28t19.5 -14.5t9 -5.5t3 -1q2 0 7.5 -1t5.5 0q0 4 -4.5 7.5t-10 7.5t-10 9t-4.5 11q12 0 19 3.5t12 8t10.5 8.5t14.5 4q13 0 20 -4t12 -8.5t9 -8.5t11 -4q5 0 8.5 1t8.5 1q7 0 9 -6t3 -11q3 -15 5 -23t5 -14t7.5 -12.5t12.5 -18.5q6 -8 6 -17zM459 1258 q6 8 -3 18t-20 10q-12 0 -15.5 -11.5t-3.5 -20.5q2 -7 6 -11q3 -4 7 -7t9 -3q8 0 12 3.5t6 8.5t2 13z" />
<glyph unicode="J" horiz-adv-x="1108" d="M1102 1326q0 -13 -7.5 -22.5t-17 -18.5t-18.5 -19.5t-12 -25.5h-3q-8 1 -16.5 1.5t-16.5 0.5q-42 0 -82 -6t-82 -10q-8 -21 -17 -27.5t-16.5 -13.5t-12.5 -22.5t-5 -55.5q0 -42 4 -82t4 -81q0 -33 -5.5 -66t-5.5 -67q0 -43 6 -85.5t6 -86.5q0 -53 7 -104.5t7 -104.5 q0 -15 -4 -44t-10.5 -60.5t-14 -59t-14.5 -38.5q-10 -16 -27 -23t-30 -20q-8 -7 -18 -21t-20.5 -28.5t-21.5 -26t-20 -13.5q-7 -8 -13.5 -16.5t-14.5 -16.5q-10 -9 -13 -14.5t-6 -9t-8.5 -5t-20.5 -2.5q-22 -2 -42.5 -8t-41 -12.5t-41 -12t-42.5 -5.5q-42 0 -79 12.5 t-74 32.5q-13 7 -21.5 10.5t-15.5 7t-14.5 10t-17.5 18.5q-21 26 -46 44t-52 38q-14 10 -22 26.5t-12.5 35.5t-6 38.5t-1.5 35.5q0 19 1.5 41.5t5.5 45t10.5 43.5t16.5 38q12 19 21.5 33.5t21.5 23.5t28 13.5t41 4.5q36 0 61.5 -4t44.5 -16t32 -34t24 -58q5 -17 8 -34.5 t3 -34.5q0 -19 -6.5 -39t-26.5 -27q-8 -10 -17 -20.5t-16.5 -22t-13 -24t-5.5 -25.5q0 -27 17.5 -42.5t42 -23t50 -9t40.5 -1.5q21 0 39 10t37 17q17 6 36 10.5t37 10t35 13.5t31 22q23 78 26.5 160.5t3.5 163.5q-1 18 -3.5 23.5t-5.5 8t-5 5.5t-2 15q0 17 4.5 34.5 t4.5 35.5q0 29 -5.5 56.5t-5.5 56.5q0 57 8.5 112.5t8.5 112.5q0 12 -6.5 22.5t-6.5 22.5q0 9 5 16.5t5 16.5t-6 23t-13.5 30t-15 32.5t-9.5 29.5q-3 21 -8 32.5t-13 17t-21 7t-33 3.5q-30 3 -59.5 3.5t-59.5 0.5q-15 0 -22.5 2t-12 6t-8.5 11t-12 18q-11 14 -21 30t-10 36 q0 16 8.5 26.5t21.5 17t28 9t28 2.5q24 0 48 -3t49 -3q22 0 35.5 5t23 10.5t19.5 10.5t25 5q26 0 51.5 -6t51.5 -6q14 0 27.5 -3.5t27 -8t26.5 -8t27 -3.5q23 0 44.5 8.5t44.5 8.5q18 0 35 -3l34 -6q20 -4 36.5 -6t30 -7.5t24 -17t18.5 -34.5q3 -9 3 -20zM449 1355 q0 5 -4.5 10t-10.5 5q-10 0 -12 -11t-2 -19q7 0 18 2t11 13z" />
<glyph unicode="K" horiz-adv-x="1193" d="M1196 45q0 -10 -22.5 -16t-55 -9t-69.5 -4t-65 -1h-47q-29 0 -56.5 -2t-56.5 -2q-9 0 -24.5 0.5t-30 4.5t-25 11t-10.5 21q0 2 5.5 20t16 38.5t25.5 37t34 16.5q11 0 20 -3q3 13 3 28q0 29 -11.5 53t-26 47t-28.5 46.5t-19 51.5q-3 16 -10.5 27.5t-16 22.5t-16 23 t-10.5 29q-2 13 -4.5 19.5t-6.5 10.5t-10.5 7t-16.5 10q-10 6 -13.5 14t-5 16.5t-2.5 18t-5 18.5q-8 4 -14.5 7t-14.5 7q-6 14 -11 31.5t-12.5 33.5t-19 26.5t-31.5 10.5q-13 0 -26.5 -11.5t-28 -27.5t-28.5 -33.5t-28 -29.5q-1 -4 -1 -8v-8q0 -12 1 -24.5t1 -24.5 q0 -17 -4.5 -29t-10.5 -23.5t-10.5 -23t-4.5 -26.5q0 -32 7.5 -64t7.5 -64q0 -17 -1.5 -34t-1.5 -34q0 -36 13 -55.5t32 -30.5t42 -15.5t42 -9t32 -12t13 -24.5q0 -13 -6.5 -28t-17.5 -28t-24.5 -22.5t-26.5 -10.5q-6 -1 -12 -1h-12q-15 0 -30 3.5t-31 3.5q-13 0 -25.5 -4 t-25.5 -7q-32 -7 -65 -12.5t-65 -5.5q-13 0 -31 8t-34.5 21t-28 30t-11.5 35q0 27 19 45.5t42 26.5q9 16 21.5 19t24 4.5t20.5 8t11 30.5q2 20 11.5 36t9.5 35l-1 5q-7 70 -14.5 139t-7.5 140q0 66 2.5 132.5t9.5 132.5q2 14 4.5 28.5t2.5 29.5q0 16 -8 29.5t-8 30.5 q0 20 2.5 38.5t2.5 38.5q0 14 -2.5 27t-2.5 26q0 19 1 37.5t1 36.5q0 39 -4.5 62t-18 34.5t-37 15t-62.5 3.5q-16 0 -32.5 1t-30 7t-22.5 17.5t-9 32.5t9.5 42.5t26.5 34.5q13 10 40.5 17.5t63 12.5t75 7.5t77 4t68.5 2t50 0.5q33 0 54.5 -4t35 -16t19 -33t5.5 -55 q0 -35 -16 -59t-56 -24q-11 0 -22 1.5t-22 1.5q-15 0 -30 -11.5t-26.5 -26.5t-18.5 -29t-7 -20q0 -17 6.5 -33.5t6.5 -33.5q0 -20 -6 -38t-6 -38q0 -8 1 -14.5t3 -13.5q1 -8 2 -26t2 -40.5t3 -46t6 -43t10.5 -32t17.5 -12.5q16 0 37.5 26t42 60.5t36 68t18.5 48.5 q20 9 36.5 22.5t30.5 28.5q10 10 30.5 33t41.5 49t36.5 50t15.5 37q0 15 -8 32t-17 36t-17 38.5t-8 40.5q0 18 22 29t52 17.5t60.5 9t47.5 2.5q75 0 148.5 -18.5t141.5 -50.5q-11 -32 -26.5 -47t-33.5 -22t-39 -8.5t-43 -5t-44.5 -12.5t-43.5 -31q-16 -17 -30 -35t-28.5 -35 t-30.5 -32.5t-37 -27.5v-5q0 -36 -19 -64t-41.5 -57t-41.5 -63t-19 -82q0 -24 5 -52.5t16 -55t28.5 -47.5t42.5 -30q0 -5 2 -22.5t5.5 -38t9 -40t12.5 -28.5q6 -7 7.5 -12t2 -9.5l1 -9t3.5 -11.5q7 -5 14 -8t15 -7v-42q3 -9 8 -11t13 -2q6 0 9.5 -13t7 -31.5t7.5 -38.5 t12 -33q10 -17 17.5 -36t15 -37.5t16.5 -36.5t22 -32q19 -21 47.5 -33.5t54.5 -17.5q7 -2 24 -8.5t34.5 -15.5t30.5 -19t13 -18z" />
<glyph unicode="L" horiz-adv-x="1234" d="M1192 278q0 -13 -5 -24t-5 -24q0 -10 4 -19.5t4 -19.5q0 -8 -3 -25.5t-7.5 -36.5t-9.5 -35.5t-9 -22.5h-29q-4 -21 -14 -43q-38 -18 -65 -23t-58 -5q-14 0 -29.5 0.5t-33.5 0.5q-33 0 -58 -3.5t-54 -20.5q-9 -4 -19 -4q-19 0 -37.5 4t-36.5 9t-36.5 9t-37.5 4 q-27 0 -54 5.5t-54 5.5q-20 0 -39 -3.5t-38.5 -8t-38.5 -8t-39 -3.5q-18 0 -35 4t-35 4q-32 0 -63.5 -5.5t-63.5 -5.5q-42 0 -69.5 20.5t-27.5 65.5q0 18 8 32q23 42 47.5 60.5t47 26.5t42.5 11t35 13t23.5 34t8.5 74q0 59 -9.5 116.5t-9.5 117.5q0 29 6 57t6 57 q0 50 -4.5 98.5t-4.5 97.5q0 34 -9 66.5t-9 66.5q0 20 4 38.5t4 37.5q0 29 -3 58t-5 58q-1 16 -4.5 31.5t-11.5 27t-21 18.5t-32 7q-18 0 -35.5 -6t-36.5 -6q-11 0 -21 2t-20 5q-5 7 -8.5 16t-7.5 17.5t-10 15t-17 8.5q10 15 19 39t20.5 46t27.5 38t39 16q19 0 35.5 -9 t35.5 -9q24 0 46 10t47 10q20 0 36 -14q18 5 33 5q10 0 19.5 -3t19.5 -3q30 0 58.5 8.5t58.5 8.5q24 0 46 -7t43 -16.5t42 -19.5t44 -15q1 -5 1.5 -8.5t0.5 -8.5v-4l-1 -4q-1 -19 -7 -37.5t-9 -36.5q-5 -24 -17.5 -30.5t-30.5 -6.5q-8 0 -17 0.5t-17 0.5q-37 0 -73.5 -5.5 t-71.5 -16.5q-10 -19 -10 -42q0 -18 4 -36t6 -36q-11 2 -19.5 5.5t-19.5 3.5q-8 0 -14.5 -9t-6.5 -17q0 -7 5 -12t12 -8t15 -4t13 -1l1 -20q0 -37 -8.5 -72.5t-8.5 -72.5q0 -11 2.5 -22t2.5 -22q0 -13 -7.5 -16t-16 -3t-16 -1t-7.5 -9q0 -3 1 -5q-4 -8 -4 -14q0 -9 7 -11 t15 -2.5t15 -2t7 -8.5q0 -11 -3 -20.5t-3 -19.5q0 -27 11 -52t11 -52q0 -24 -6.5 -47.5t-6.5 -47.5q0 -15 4.5 -29.5t10 -29t10 -29t4.5 -29.5q0 -21 -7 -41t-7 -41q0 -5 2 -15q4 -23 7.5 -54.5t12.5 -60t27 -48.5t51 -20q31 0 60 9.5t60 9.5q19 0 37.5 -4.5t36.5 -10.5 t36.5 -10.5t38.5 -4.5q30 0 59.5 7t59.5 12q42 8 63 28.5t21 65.5t-10.5 87.5t-10.5 87.5q0 27 8 52.5t25 45.5q24 8 48 8q44 0 62 -28.5t18 -67.5q0 -17 -7 -23.5t-7 -12.5q0 -2 4 -5.5t9 -8.5t9 -12t4 -15q0 -7 -6 -10q0 -11 -1 -27t-1.5 -32t0.5 -30t5 -21z" />
<glyph unicode="M" horiz-adv-x="1429" d="M1335 72q-6 -21 -20.5 -33.5t-33.5 -19.5t-40.5 -9.5t-40.5 -2.5q-29 0 -57 3.5t-56 8.5q-15 2 -37.5 3t-44.5 5t-37.5 14.5t-15.5 32.5q0 25 10 36.5t25 16t33 5.5t33 6.5t25 18t10 40.5q0 18 -3.5 36t-7.5 35.5t-7.5 35t-3.5 35.5q0 12 7.5 25.5t7.5 30.5q0 31 -5 58 t-16 56q-7 19 -7 35q0 15 6.5 29t6.5 30q0 21 -7 40.5t-7 40.5q0 28 6 55t6 55q0 19 -4 42t-10.5 46.5t-13.5 46t-13 40.5q-20 -9 -32.5 -23.5t-20 -32.5t-12 -38t-7.5 -39q-7 -39 -21.5 -76t-20.5 -76q-8 -48 -9.5 -95t-5 -93.5t-11.5 -92.5t-29 -92q-8 -17 -10 -32t-2 -31 q0 -14 1 -28t1 -29q0 -31 -6.5 -46.5t-14.5 -25.5t-16 -19.5t-12 -28.5q-3 -16 -16.5 -24.5t-31.5 -14t-36 -9t-30 -9.5q-11 23 -26.5 43t-28.5 42q-14 23 -17.5 49t-12.5 52q-4 12 -9.5 21t-10 18.5t-8 19.5t-3.5 24q0 11 1 20.5t1 20.5q0 24 -8 51q-16 51 -28 100t-17 103 q-5 49 -8 99t-21 97q-9 23 -21 44t-20 44q-2 5 -3.5 16t-4 23t-6 21.5t-7.5 10.5q-5 -4 -7 -12q-7 -18 -11 -25t-7.5 -11.5t-8.5 -9.5t-14 -18q-8 -11 -8 -24q0 -23 10 -44.5t10 -44.5q0 -11 -4 -22.5t-4 -22.5q0 -29 8.5 -57.5t8.5 -57.5q0 -23 -7 -44.5t-7 -44.5 q0 -24 5.5 -47.5t5.5 -47.5q0 -20 -4 -38.5t-8.5 -37.5t-8.5 -38t-4 -39q0 -41 16 -58t38.5 -26t46.5 -17.5t41 -31.5q-9 -15 -13.5 -32.5t-13.5 -32.5q-8 -13 -16.5 -18t-17 -6.5t-18.5 -3t-21 -7.5t-15.5 -11.5t-8.5 -10t-11.5 -7t-23.5 -2.5q-17 0 -34 4t-34 4 q-18 0 -35 -5.5t-35 -5.5q-21 0 -42 7.5t-37.5 21t-27 32t-10.5 41.5q0 34 14 52t35.5 28.5t46.5 18t47 19.5q5 17 6 34.5t1 35.5q0 29 -2.5 58t-2.5 58q0 19 4 37.5t4 38.5q0 10 -3 19q-14 37 -17.5 71t-3.5 74q0 17 4.5 33t10 32t10 32t4.5 33q0 31 -4 61t-4 61q0 20 4 39 t4 39t-8 38.5t-8 38.5q0 14 7.5 25t7.5 25q0 8 -8 16t-8 26q0 15 1.5 30t1.5 30q0 30 -10 47.5t-24.5 27t-31.5 13.5t-31.5 8.5t-24.5 10.5t-10 20q0 13 14.5 26.5t36.5 26.5t48 25.5t48 22.5t37.5 17t17.5 10q4 -7 11 -9.5t15.5 -3t17 -0.5t14.5 -2q10 -3 15 -8t9.5 -10 t12.5 -10t24 -9q38 -10 57.5 -28.5t19.5 -60.5q0 -11 -2 -21.5t-2 -21.5l25 -71q3 -11 6.5 -22.5t5.5 -22.5q11 -9 17 -27t8.5 -38.5t3.5 -40.5t3 -34q3 -23 10.5 -44.5t7.5 -44.5q0 -14 -4.5 -28t-4.5 -29q0 -26 7 -51t16 -49.5t16.5 -49.5t8.5 -51q0 -12 2.5 -37t7 -55.5 t11 -63t16 -59.5t22 -44t27.5 -17q18 0 23 10.5t6 24.5t3 28t14 20q10 6 17.5 23.5t12.5 39t7.5 42t3.5 31.5q3 52 3 107t2 110.5t9 109t23 103.5q3 8 8 15t10 14.5t8.5 15t3.5 16.5q0 6 -3 10.5t-6.5 7.5t-6.5 6t-3 7q0 5 3 7.5t6 5.5q14 16 17.5 44.5t4.5 61t2.5 64 t12.5 53.5q12 -5 23 -5q14 0 27 5.5t25.5 11.5t26 11.5t28.5 5.5q5 0 11 -0.5t11 -0.5q20 0 36 9t33 9q7 0 10 -3t4.5 -6t3.5 -6t6 -3q17 0 34.5 4t34.5 4q11 0 18 -2.5t14 -12.5q8 -12 22 -15.5l28 -7t24.5 -10t10.5 -23.5q0 -35 -17 -48t-39.5 -17.5t-44 -8t-30.5 -19.5 q-10 -17 -12 -37t-10 -39q-3 -8 -5 -15t-2 -15q0 -16 4 -31t9.5 -29.5t10.5 -29.5t7 -30q6 -54 6 -108q0 -32 -3.5 -64t-7.5 -64t-7.5 -63.5t-3.5 -62.5q0 -24 -15 -39l-1 -23q0 -29 4 -58t9 -57.5t9 -57.5t4 -58q0 -39 -11 -77t-11 -77q0 -29 12 -46t44 -17q14 0 28.5 1.5 t28.5 1.5t29 -3t26 -14q0 -4 1.5 -12t2 -15.5t-0.5 -12.5t-5 -2zM411 1058q0 19 -5.5 38.5t-23.5 29.5q0 -9 -0.5 -18.5t-0.5 -18.5q0 -16 4.5 -31.5t24.5 -16.5q1 4 1 8v9zM1191 131q0 6 -8 10t-13 4q-3 0 -8.5 -1t-11 -3t-9.5 -5t-4 -7q0 -6 9.5 -7.5t14.5 -1.5t17.5 2 t12.5 9zM752 271q-4 0 -7.5 0.5t-7.5 0.5q-17 0 -29.5 -6.5t-12.5 -26.5v-11q4 0 7.5 -0.5t7.5 -0.5q17 0 30 6.5t13 26.5z" />
<glyph unicode="N" horiz-adv-x="1286" d="M1217 1314q0 -9 -4.5 -20t-15.5 -11q-4 0 -7.5 4t-6.5 9t-6.5 9t-7.5 5q1 -19 0 -29t-3 -14.5t-5.5 -5t-7.5 -0.5q-8 0 -15 -1t-14 -3q-23 -5 -34.5 -6.5t-16.5 -6.5t-6 -16t-3 -35q-2 -18 -3 -35.5t-1 -35.5q0 -48 4.5 -94t4.5 -94q0 -23 -3.5 -45t-3.5 -45 q0 -20 8.5 -39.5t8.5 -36.5q0 -5 -3.5 -9.5t-8 -9.5t-8 -11t-3.5 -14q0 -21 7.5 -40.5t7.5 -40.5q0 -32 -4 -64t-8.5 -64t-8.5 -64t-4 -64q0 -26 3.5 -49.5t12.5 -46.5q2 -5 4 -11t2 -11q0 -13 -6.5 -21.5t-6.5 -14.5q0 -5 6.5 -12t8.5 -13q7 -23 11 -50.5t4 -51.5 q0 -21 -11 -41t-29 -35.5t-40.5 -25.5t-45.5 -10q-31 0 -52.5 19t-37 46.5t-28 57.5t-24.5 52q-10 18 -15.5 34.5t-11.5 32.5t-15 31.5t-25 30.5q-13 12 -20 28.5t-11.5 35t-8 37t-7.5 34.5q-11 39 -26 77t-29 76q-5 12 -12.5 27t-15.5 30t-14.5 29t-7.5 26q-4 33 -17 59.5 t-28 50.5t-29 49t-19 56q-2 10 -7 26.5t-13 33t-19 28.5t-23 12q-11 0 -17.5 -10.5t-10.5 -25t-5.5 -29t-1.5 -21.5q0 -20 2.5 -40t2.5 -40q0 -15 -6 -29t-6 -28q0 -9 6.5 -15t6.5 -14t-2 -15.5t-2 -15.5q0 -25 2.5 -49t2.5 -48q0 -17 -2 -34.5t-8 -32.5t-18 -25.5 t-31 -13.5q4 -8 10.5 -10.5t13.5 -3.5t12 -3t5 -11q0 -5 -0.5 -8.5t-0.5 -7.5q0 -11 4.5 -18t10.5 -13.5t10.5 -13t4.5 -16.5q0 -12 -3 -23t-3 -22q0 -24 6 -46.5t6 -46.5q0 -13 -2.5 -18.5t-6 -8.5t-6 -4.5t-2.5 -7.5q0 -10 3 -18.5t3 -18.5q0 -6 -1.5 -12t-6.5 -11 q1 -12 8 -17t16.5 -9t18.5 -8.5t14 -15.5q4 -9 8.5 -16.5t15.5 -7.5q17 0 31 7.5t30 7.5q26 0 36 -20.5t10 -42.5q0 -28 -9.5 -39.5t-21 -17t-21 -10.5t-9.5 -19q0 -2 0.5 -3t0.5 -3q-14 9 -29.5 13t-32.5 4q-30 0 -59.5 -8.5t-59.5 -8.5q-22 0 -43 4t-43 4 q-14 0 -27.5 -3.5t-27.5 -3.5t-37 6.5t-45 17t-37.5 23t-15.5 23.5q0 30 20 54.5t50 29.5q15 3 33.5 3t36.5 1.5t34 7t27 19.5q-4 15 -4 34q0 35 9 68t9 68q0 14 -3 29q-12 69 -12 139q0 20 1 40.5t1 40.5q0 52 -7.5 103t-9.5 103q-2 55 -2 108.5t-11 107.5q-3 14 -3.5 27 t-0.5 27v36q0 42 -4 63t-14 30.5t-25.5 12t-38.5 5.5q-13 2 -26.5 13t-25 26t-19 31t-7.5 29v22q0 40 12 61.5t33 32t49.5 12.5t61.5 2t68.5 -2.5t68.5 -11t60 -25t44 -44.5q11 -19 19 -39.5t15 -41.5t14 -41.5t18 -39.5q5 -9 7.5 -19.5l5 -21t5.5 -20t9 -18.5 q7 -8 16.5 -16.5t14.5 -18.5q9 -20 12.5 -41.5t6.5 -43t6.5 -43t12.5 -41.5q6 -12 11.5 -20t10 -15.5t8 -17t5.5 -24.5q2 -22 4 -43.5t10 -42.5q6 -15 16 -28t20.5 -25.5t20.5 -25.5t15 -29q10 -30 19 -56t35 -46q-6 -9 -10.5 -19.5t-4.5 -21.5q0 -21 10.5 -41.5t18.5 -39.5 q6 -15 12.5 -26t22.5 -19q14 -7 19 -12.5t6 -12t0.5 -15t2.5 -21.5q1 -6 4 -14.5t7.5 -17t10.5 -14.5t13 -6q6 0 9 4.5t5 10.5t2.5 12.5t0.5 10.5q0 14 7.5 25.5t7.5 26.5q0 17 -7.5 31t-7.5 31q0 14 5.5 25.5t5.5 25.5q0 10 -7.5 17t-7.5 14q0 3 3 3.5t6 1.5t6 3.5t3 9.5 q0 24 -5.5 46.5t-12.5 45.5t-12.5 46.5t-5.5 47.5t10 42t10 24q0 13 -6.5 23.5t-6.5 23.5q0 15 7.5 28.5t7.5 28.5q0 9 -4 17.5t-9 17.5t-9.5 18.5t-6.5 18.5q-3 15 -3.5 31t-0.5 32v43q0 27 -2.5 52.5t-9.5 51.5q-6 24 -7 44t-6 35t-19 24.5t-46 11.5q-23 2 -46 2.5 t-46 6.5q-15 4 -22.5 17t-10.5 29t-3 32.5v26.5q0 19 18.5 31.5t44 20.5t51.5 11.5t40 3.5q9 0 32 -1t51 -4t58 -7.5t55 -12t41 -17.5t16 -23q9 10 20 17t25 7q13 0 24.5 -7.5t19.5 -19.5t12.5 -25.5t4.5 -25.5zM272 68q0 9 -5 13.5t-12.5 6.5t-15 4.5t-11.5 7.5 q-1 -3 -1.5 -5.5t-0.5 -5.5q0 -9 5 -13.5t12.5 -6.5t14.5 -4.5t12 -7.5q1 3 1.5 5.5t0.5 5.5z" />
<glyph unicode="O" horiz-adv-x="1263" d="M1174 673q0 -21 -4 -40.5t-9 -39t-9 -39.5t-4 -40q0 -8 1.5 -15.5t1.5 -15.5q0 -20 -6.5 -38t-15.5 -35q-8 -15 -9.5 -31t-2 -32t-3.5 -32t-12 -30q-2 -10 -5.5 -29.5t-8.5 -27.5q-1 -2 -6 -3t-11 -2t-13 -4t-12 -9q-5 -5 -8 -14t-7 -18t-9.5 -15.5t-14.5 -6.5t-16 3.5 l-14 7t-14 5.5t-17 -1q3 -2 2 -9.5t0.5 -15.5t8.5 -15t25 -7q9 0 17.5 1t17.5 3q-8 -22 -19 -34.5t-24.5 -22t-28 -19t-28.5 -24.5q-17 -17 -32.5 -21t-36.5 -10q-24 -7 -34 -17t-22 -19t-32.5 -15.5t-64.5 -6.5q-40 0 -79.5 3t-78.5 8q-18 2 -29.5 6.5t-21.5 10t-20 11.5 t-25 12q-8 3 -19 7.5t-23 9.5t-22 10.5t-16 10.5q-7 6 -9.5 13.5t-4.5 16t-4.5 16t-9.5 12.5q-15 2 -29 5.5t-28 8.5q-4 11 -7.5 21.5t-7.5 21.5q-13 14 -25 23.5t-21 19.5t-15.5 23.5t-8.5 35.5q-3 26 -12 50.5t-18.5 48.5t-17 49t-7.5 51q0 27 11 55q-29 41 -36 89.5 t-7 97.5q0 16 0.5 31.5t0.5 30.5q0 17 -7.5 26.5t-7.5 23.5q0 22 6.5 43t8.5 43q-13 2 -17 10l2 4q7 12 11.5 22t6.5 19t4 19t5 23q8 41 20.5 80t24.5 79q13 46 32 81t59 65q17 14 31 30t20 38q5 4 11 5t12 1h8q7 0 13.5 1.5t12.5 6.5q15 14 26.5 20t31.5 6q14 0 27 -2.5 t27 -5.5q5 5 14.5 13.5t16.5 11.5v-3q0 -4 1.5 -7.5t6.5 -3.5q13 0 25 6t25 8q29 5 58 15.5t59 10.5q32 0 68.5 -4t71.5 -15t65 -30.5t48 -50.5q8 -14 16 -21.5t16 -13l16 -11t17 -15.5q19 -22 30.5 -47.5t32.5 -45.5q26 -24 38.5 -58t12.5 -69q0 -11 -3 -22t-3 -23 q0 -10 4.5 -21t10.5 -23t11 -25t7 -25q3 -27 9 -52.5t12 -52.5q8 -34 12 -69t3 -70zM1011 680q0 56 -9.5 111t-18.5 110q-4 20 -12.5 38t-14.5 37q-12 36 -23 72l-22 72q-7 22 -28 38.5t-49 28t-60.5 19t-62.5 12t-55.5 6t-38.5 1.5l13 1l-11 -1q-22 0 -43.5 2t-43.5 2 q-18 0 -35.5 -2.5t-31.5 -13.5q-33 -26 -62 -48.5t-48 -61.5q-6 -13 -13 -18.5t-13.5 -11t-11.5 -12.5t-7 -23q-5 -29 -11.5 -57.5t-6.5 -57.5q0 -31 -5.5 -61.5t-17.5 -59.5q-3 -8 -5.5 -15t-2.5 -15q0 -15 7 -25.5t7 -18.5q0 -4 -2.5 -4.5t-5 -2t-5 -6.5t-2.5 -18 q0 -29 0.5 -59t5.5 -59q3 -17 10.5 -32.5t7.5 -32.5q0 -11 -5 -22t-5 -23q0 -14 8 -22.5t16 -19.5q6 -8 10.5 -20.5t9 -23.5t8.5 -19t9 -8q4 0 7 1.5t7 1.5q20 0 30.5 -17.5t10.5 -34.5q0 -14 8 -23.5t19 -17.5t22.5 -15.5t19.5 -16.5q13 -15 20.5 -20t13.5 -6.5t11.5 -2.5 t14.5 -7q11 -8 22.5 -17.5t22.5 -17.5q31 -22 69.5 -26.5t75.5 -4.5q15 0 28 7t26 15.5t26.5 15.5t29.5 7q13 0 27 -6q23 35 44 56t38 41t29 46t17 71q2 19 10.5 35.5t10.5 34.5q5 40 5.5 80t6.5 80q2 16 3 32t1 33z" />
<glyph unicode="P" horiz-adv-x="1133" d="M97 1283q-4 -5 -8.5 -9t-10.5 -4q-7 0 -11.5 6t-4.5 13q0 1 1 3t1 4l6 2q8 0 15 -5t12 -10zM382 570v-3q-1 3 -1 5.5v4.5l1 -6v-1zM1079 1031q0 -15 -1 -34t-3.5 -39t-6 -38.5t-8.5 -32.5q-14 -34 -36.5 -62t-35.5 -63q-3 -9 -17 -20t-31 -22t-33.5 -20.5t-25.5 -15.5 q-57 -35 -114 -53t-123 -18h-6q-16 9 -26.5 12t-29.5 3t-37 -1t-36 -3q-7 -1 -27.5 -7.5t-42.5 -15t-39.5 -17t-17.5 -13.5v-4q2 -7 5 -7q5 0 9.5 5.5t10.5 5.5q5 0 8 -5t4.5 -11.5t2 -13t0.5 -9.5q0 -29 -6 -57.5t-6 -57.5t-0.5 -57.5t-0.5 -57.5q0 -53 5.5 -80t21.5 -40.5 t44 -20t73 -18.5q-3 -9 -3 -17q0 -12 7.5 -17.5t16 -11t16 -12.5t7.5 -22q0 -13 -10 -23q-12 -12 -15.5 -20t-6.5 -12.5t-11 -7t-29 -3.5q-48 -3 -95 -3q-18 0 -36 0.5t-37 0.5q-48 0 -94 -3q-28 -2 -54.5 -9t-55.5 -7q-33 0 -45 19t-12 49q0 29 13 48.5t32.5 32t42 20.5 t42 15.5t32.5 15.5t13 21q0 12 -4.5 23t-4.5 23q0 7 7 27t7 47v21.5t-1 21.5q-6 3 -9 12t-4.5 19.5t-1.5 21v16.5q0 38 5 75.5t5 75.5q0 24 -3 47t-3 47q0 7 4 10q-9 7 -9 20q0 14 4.5 26t4.5 25q0 20 -4 40t-8.5 39.5t-8 39t-3.5 39.5q0 12 3.5 23t7 22.5l7 23t3.5 24.5 q0 34 -6.5 66.5t-6.5 66.5q0 20 9.5 29.5t20.5 15.5t20.5 11.5t9.5 16.5q0 7 -6.5 12t-12.5 5q-14 0 -24 -9t-23 -9q-8 0 -14.5 10.5t-14 22.5t-17 22.5t-22.5 10.5q-11 0 -22 -3t-22 -3q-15 0 -19 7t-4 18q0 5 0.5 10t0.5 10q0 8 -3 17t-14 9q-6 0 -12 -2q14 18 37 27.5 t48.5 14.5t52 7.5t47.5 7.5q8 2 14.5 3t14.5 1q18 0 35.5 -3.5t34.5 -3.5q19 0 30.5 8.5t27.5 8.5q8 -4 21 -9.5t21 -5.5q34 0 67 4t66 4q36 0 69.5 -9.5t67 -21.5t66.5 -24t68 -18q12 -2 23.5 -9t22.5 -16.5t21.5 -19.5t19.5 -17q14 -11 22.5 -25t17 -28.5t18 -28 t24.5 -23.5q14 -9 22 -25.5t11.5 -35.5t4.5 -38t1 -34zM914 970q0 64 -19.5 116.5t-56 90t-88.5 58.5t-116 21h-30t-44 -1t-50 -3t-48 -5.5t-38.5 -9t-21.5 -13.5q-7 -11 -19.5 -26.5t-12.5 -27.5q0 -11 6 -22.5t13.5 -24.5t14 -26.5t6.5 -27.5q-8 -1 -15 -4.5t-7 -12.5 q0 -15 9.5 -33t9.5 -37q0 -14 -6 -21.5t-13 -12.5t-13 -10t-6 -13q0 -9 13 -30t29 -44.5t29 -43t13 -23.5q24 -3 47 -3q15 0 49.5 1.5t72.5 4t71 5.5t45 6q13 3 18 9l10 12t12.5 10.5t24.5 4.5q31 0 52.5 11t34.5 29.5t18.5 43t5.5 52.5z" />
<glyph unicode="Q" horiz-adv-x="1233" d="M1169 2q0 -17 -3.5 -34t-17.5 -29q-6 -5 -10 -13.5t-7.5 -18t-6.5 -19t-7 -16.5q-9 -15 -22 -22t-28 -10t-31 -4.5t-30 -5.5q-17 -5 -33 -9t-30 -15q-2 -2 -4.5 -3.5t-6.5 -1.5q-6 0 -11.5 6t-13.5 6q-12 0 -24 -4t-24 -4q-38 0 -65 23.5t-44.5 58t-26 73t-9.5 68.5 q-13 -1 -25.5 -1.5t-24.5 -0.5q-55 0 -107.5 9t-106.5 20q-18 3 -32.5 5t-28 5.5t-26 11.5t-25.5 23q-23 27 -47.5 50.5t-47.5 49.5q0 41 -17.5 77.5t-38 73.5t-38 77t-17.5 88q0 35 12 68q-17 17 -20 39.5t-5 44.5q-2 18 -7 35t-10.5 34.5t-10 34.5t-4.5 35q0 20 5 39 t11.5 38t12.5 37.5t8 38.5q3 27 2.5 55t5.5 54q1 7 6 15.5l10 17t9 16t4 11.5q0 7 -9 19t-9 23q0 6 6 16.5t14.5 21.5t17.5 19t15 8q5 0 10 -3t9 -7q5 27 16.5 51t26.5 47q4 6 8 13.5l8 15t9 12.5t10 5q4 0 8 -1.5t9 -1.5q2 0 4 1t2 3q0 5 -2 9.5t-2 9.5q0 10 27 17.5 t61.5 12.5t66.5 8t43 3q2 0 10.5 -1t8.5 -3q9 9 22.5 15t28.5 9t30 4t27 1q31 0 61 -4.5t58 -16.5q13 -5 26 -9t25.5 -8.5t23.5 -11.5t20 -18q24 -30 57 -63.5t63.5 -70t51.5 -75.5t21 -80q0 -8 -0.5 -15t-1.5 -15q22 -9 31.5 -38t12.5 -64t2.5 -69.5t2.5 -54.5 q2 -17 3.5 -33t1.5 -32q0 -54 -6 -106t-8 -106q-1 -29 -7 -57t-12.5 -55.5t-13 -55.5t-7.5 -56q-17 -6 -31 -24t-26 -39.5t-22.5 -43t-20.5 -35.5q-14 -18 -31.5 -34.5t-33 -33.5t-26.5 -37t-11 -47q0 -28 8 -55t8 -54q0 -6 9.5 -12t21.5 -11.5t23.5 -10t16.5 -8.5 q8 -7 15.5 -12.5t18.5 -5.5q18 0 28.5 13t19 33t16 43t18.5 43t27.5 33t42.5 13q56 0 56 -55zM999 713q-16 17 -22 38.5t-7 44.5q-1 31 -2 60.5t-5 57.5t-12 56t-23 56q-15 29 -32 55.5t-25 58.5q-5 19 -8 36t-9.5 31.5t-18 25.5t-32.5 19q-26 9 -65.5 21t-77 23t-64 19.5 t-25.5 10.5q-8 -20 -27.5 -25.5t-42.5 -6.5t-46 -3t-38 -15q-17 -15 -29 -34t-29 -35q-8 -8 -18 -13.5t-20 -10.5t-19.5 -11.5t-15.5 -16.5q8 -7 10.5 -16t2.5 -19q0 -27 -8.5 -51.5t-18.5 -49.5t-18.5 -49.5t-8.5 -51.5q0 -10 4.5 -18.5t4.5 -18.5q0 -18 -4 -35t-9.5 -33.5 t-10.5 -33.5t-6 -34q-1 -11 -1.5 -23t-0.5 -23q0 -41 4 -81.5t10 -80.5q2 -17 4.5 -32.5t2.5 -31.5q0 -10 5 -18.5t12.5 -16.5t15.5 -15.5t13 -14.5q12 -17 21.5 -35t21.5 -33t28 -26t40 -15q2 14 6 21.5t17 7.5h6q1 27 12.5 50.5t30 41.5t43 28t51.5 10q6 0 12 -1t12 -1 q5 0 12.5 7t20.5 7q20 0 38 -8.5t36 -17.5q18 -10 31.5 -14.5t24.5 -10t20.5 -15.5t20.5 -30q4 -8 9.5 -18t12 -18.5t15 -14.5t18.5 -6q17 0 33 20t29.5 46t23.5 52.5t16 40.5q13 30 17.5 61.5t7 62.5t7 60t16.5 53zM629 268q0 2 0.5 3.5t0.5 3.5q0 13 -13 19.5t-29 6.5 q-25 0 -43.5 -16.5t-18.5 -38.5q0 -10 2.5 -18t5.5 -14q4 -7 9 -14q8 -3 17.5 -5.5t19.5 -2.5q19 0 34 14.5t15 58.5v3z" />
<glyph unicode="R" horiz-adv-x="1304" d="M1277 158q0 -9 -1 -24t-10 -20q-10 -5 -12.5 -17t-2.5 -24t-1 -21.5t-8 -9.5q-5 0 -8 2.5t-8 2.5t-10 -5t-5 -10t3.5 -7.5t3.5 -7.5q0 -4 -15 -9.5t-34 -11t-37 -9t-24 -3.5q-36 0 -72 13t-70 24q-41 14 -60.5 46t-28.5 72t-13.5 82t-16.5 75q-5 15 -5 25t2.5 16.5t6 11 t6 8t2.5 7.5q0 12 -7 24t-7 32q0 11 0.5 21.5t0.5 21.5q0 37 -6.5 61t-18 44t-27 40t-34.5 48q-9 -2 -18.5 -2h-19.5q-20 0 -39.5 2t-39.5 2q-21 0 -42.5 -4t-43.5 -4q-14 0 -28 4.5t-28 4.5q-17 0 -34 -6.5t-31 -18t-22.5 -27t-8.5 -33.5v-32q0 -87 -15 -171 q-2 -13 -4 -25.5t-2 -26.5q0 -41 16.5 -66t40.5 -40.5t53 -25.5t53 -20.5t40.5 -25.5t16.5 -41q0 -10 -3.5 -18.5t-8.5 -16.5q-13 -21 -24.5 -31.5t-25 -16.5t-29.5 -9t-38 -8q-17 -4 -35.5 -5.5t-36.5 -1.5q-28 0 -55 6.5t-55 6.5q-21 0 -42.5 -3.5t-42.5 -8t-42 -8 t-42 -3.5q-14 0 -30.5 3t-30.5 10.5t-23.5 19.5t-9.5 29q0 14 7 25t18.5 19t24.5 13t25 6q11 1 18.5 1t13 2t11.5 6t14 12q5 5 9.5 8t11.5 3q5 0 10 -1t10 -1q8 0 16 5q21 12 30 31t12 41.5t3.5 46.5t5.5 44q5 22 5 41q0 35 -8.5 69t-8.5 69q0 42 6 84t6 84q0 11 -0.5 21 t-0.5 21q0 72 9 142t9 142q0 20 -1 39t-3 39q-2 16 -4 39.5t-6 48.5t-10.5 50t-18 44.5t-28 32t-39.5 12.5q-5 0 -10.5 -1t-10.5 -1q-11 0 -18 6.5t-11 16t-5.5 20.5t-1.5 19q0 34 17.5 50t43 22t55 5.5t52.5 1.5q26 2 51.5 9t52.5 7q39 0 77 -10t77 -10q32 0 62 5.5 t60 15.5q15 5 27 5q39 0 77 -10t76 -12q26 -2 54 -9.5t52.5 -21t42.5 -34.5t23 -49q3 -17 14 -32.5t23.5 -28t22 -23t9.5 -17.5t-6.5 -10.5t-6.5 -11.5q0 -5 6.5 -11t14.5 -14t14.5 -17.5t6.5 -20.5q0 -15 -9.5 -26.5t-9.5 -26.5l2 -3l14 4l2 -2q4 -16 3.5 -33.5t-0.5 -31.5 q0 -19 -1 -42t-5 -45t-12 -41t-23 -30q-9 -7 -18.5 -10.5t-18.5 -8t-16 -11.5t-11 -19q-5 -17 -17 -32t-24.5 -29.5t-22 -29.5t-9.5 -33q0 -29 13.5 -54t24.5 -51q11 -27 16 -54.5t7.5 -55.5t4 -56t5.5 -56q2 -12 9.5 -39.5t18.5 -55.5t25 -49t29 -21q13 0 21 14t15.5 32 t17 35t25.5 23q31 -3 51.5 -12t31.5 -24.5t15.5 -38t4.5 -52.5zM978 1078q0 14 -6 32.5t-15 37.5t-19.5 36t-20.5 28q-21 0 -28 3t-9 7.5t-4.5 10.5t-14.5 12q-35 17 -63 26t-67 9q-11 0 -21.5 -6t-18.5 -6q-23 0 -45 5.5t-45 5.5q-33 0 -68 -8q-23 -6 -46 -11t-41 -15 t-29.5 -27t-11.5 -47q0 -31 6.5 -61t6.5 -61q0 -15 -4.5 -29t-9.5 -27.5t-9.5 -27.5t-4.5 -29q0 -18 3.5 -36.5t12.5 -33t23.5 -23.5t36.5 -9q21 0 40 8.5t40 8.5q11 0 21 -5.5t20 -11.5t21 -11.5t24 -5.5q10 0 19 2.5t17 6.5q38 17 80.5 30.5t84.5 13.5q11 0 26 12.5t31 32 t32 43t28.5 47t20 43t7.5 30.5z" />
<glyph unicode="S" horiz-adv-x="1206" d="M1119 499q0 -51 -6.5 -100t-9.5 -100q-7 7 -15.5 11.5t-17.5 4.5q-11 0 -21 -7t-10 -18q0 -12 11.5 -16t23.5 -4q10 0 14 1q0 -12 -6.5 -24.5t-16 -24.5t-20 -22.5l-18.5 -18.5q-6 -6 -13 -17t-15.5 -21.5t-17.5 -18t-18 -7.5q-10 0 -16 5.5t-14 5.5q-11 0 -13.5 -11.5 t-2.5 -22.5v-12q0 -5 -21 -13t-50.5 -17.5t-61 -19t-52.5 -18.5q-41 -17 -83 -28t-87 -11q-33 0 -63.5 8.5t-61 19t-61 19t-63.5 8.5q-13 0 -34 -4t-32 -12q-5 -4 -10 -14.5t-12 -10.5q-5 0 -14 4t-13 6q-23 12 -39 31.5t-27 42.5t-16 48.5t-5 49.5q0 17 3.5 33.5t3.5 33.5 q0 24 -5.5 47t-5.5 47q0 17 5.5 34t5.5 34q0 13 -6 24.5t-6 24.5q0 9 6.5 15t6.5 14q0 12 -1 24t-1 24q0 6 0.5 17.5t2.5 22.5t7 19t14 8q18 0 36.5 -22.5t34 -52.5t25.5 -60t10 -45q0 -5 -4 -9.5t-10 -4.5q4 -7 9 -21t5 -22q0 -12 -3.5 -23t-3.5 -23q0 -10 4.5 -19t9.5 -17 q8 -12 14 -18t13 -8.5t15.5 -3.5t22.5 -2q20 -29 45 -54t54 -45q45 -10 89 -16t89 -6q37 0 64.5 8t51 21t45.5 29.5l46 34.5q17 12 36 23t37 23t34 26.5t27 33.5q7 12 20.5 24.5t13.5 27.5q0 6 -1 9q-4 32 -5.5 62.5t-3.5 62.5q-2 30 -13 45.5t-27.5 26t-35.5 20.5t-37 28 q-19 19 -42.5 24t-48.5 6t-49.5 3.5t-45.5 18.5q-6 4 -10 4q-9 0 -17.5 -5.5t-18.5 -5.5q-15 0 -30.5 4t-30.5 9l-30 10t-30 7q-20 3 -32.5 4t-23 3.5t-22.5 8t-30 17.5q-52 34 -111 50q-11 28 -29 57q-11 7 -21.5 13.5t-20.5 14.5q-6 10 -15.5 35t-18.5 53.5t-15.5 53.5 t-6.5 36q0 23 5 44t23 38q3 2 7.5 5.5t4.5 8.5t-7.5 7.5t-7.5 10.5q0 1 1 3.5t1 4.5q7 22 21 42t32 38t37.5 33.5t37.5 28.5q13 9 22.5 23t20.5 20q7 0 14 0.5t14 0.5q8 0 14.5 -0.5t14.5 -0.5q11 4 15 9.5t8 10.5t10.5 8t23.5 3q11 0 22 -0.5t22 -0.5q38 0 75.5 1t75.5 1 q27 0 53.5 -0.5t53.5 -4.5q18 -2 35 -7.5t36 -5.5q18 0 25.5 7t12 15t10.5 15t21 7q21 0 43.5 -11t42.5 -18l-1 -4q-3 -9 -3 -20q0 -17 5.5 -33.5t11.5 -32.5t11.5 -32t5.5 -34q0 -11 -2 -20.5t-2 -20.5q0 -20 8 -28.5t8 -15.5q0 -8 -7 -13.5t-7 -16.5q0 -26 3 -51.5 t3 -51.5q0 -9 -0.5 -27t-4 -35.5t-11 -30.5t-21.5 -13q-15 0 -29 11.5t-23 22.5q-13 14 -19 30.5t-10 34.5t-9 35.5t-15 32.5q-16 23 -30.5 46.5t-28.5 47.5q-11 18 -19 25t-17 9.5t-20.5 2.5t-28.5 3q-18 3 -35.5 9t-35 11.5t-35.5 10t-36 4.5q-29 0 -59 -9t-60 -22.5 t-59 -28t-56 -24.5q-25 -53 -25 -114q0 -44 10 -72t27.5 -47.5t40 -34.5t47.5 -32q26 -17 51.5 -22.5t55.5 -5.5q17 0 33.5 1t33.5 1q19 0 36 -5t33.5 -11.5t33.5 -11.5t35 -5q17 0 32.5 2t31.5 2q14 0 25 -6.5t22 -15t22.5 -15.5t25.5 -8q20 -10 33 -18t23.5 -17t20 -22 t21.5 -32q11 -19 29 -33t29 -34q4 -7 5 -16.5t3 -18t6.5 -15t14.5 -7.5q1 -11 1.5 -21.5t0.5 -21.5z" />
<glyph unicode="T" horiz-adv-x="1217" d="M1155 1044q0 -18 -0.5 -36.5t-4.5 -35.5q-2 -9 -9 -19.5t-16.5 -20t-20.5 -16t-20 -6.5q-15 0 -19 12t-5.5 26t-6 26t-20.5 12q-5 0 -8.5 -2t-8.5 -2q-2 0 -4 12t-5 29t-7 34.5t-9 29.5q-9 19 -18.5 39.5t-9.5 43.5q0 16 6 27.5t13 21.5t13 20t6 24q0 20 -13 35 t-32.5 24.5t-41 14t-37.5 4.5q-27 0 -52.5 -6.5t-51 -15.5t-50.5 -19t-50 -17q5 -14 6.5 -29t1.5 -30q0 -34 -3 -67.5t-3 -67.5q0 -37 4 -73.5t8.5 -72.5t8.5 -72.5t4 -72.5q0 -44 -15 -86q-3 -8 -3 -13q0 -11 5 -21.5t11.5 -22t11.5 -23.5t5 -25q0 -12 -4 -23t-4 -22 q0 -16 4.5 -31t4.5 -31q0 -9 -4.5 -11t-10.5 -2t-10.5 -0.5t-4.5 -5.5q0 -15 6.5 -28.5t6.5 -28.5q0 -13 -5.5 -24.5t-5.5 -24.5t11.5 -23t16.5 -24q5 -17 8.5 -39t14 -42t32.5 -33.5t65 -13.5h29q12 0 29.5 -2t34 -7.5t28 -16t11.5 -26.5t-6 -31t-6 -31q0 -5 2 -15 q-15 0 -26.5 -6.5t-16.5 -21.5q-20 4 -40.5 5.5t-40.5 1.5q-51 0 -101 -7.5t-100.5 -16t-101 -16t-101.5 -7.5q-17 0 -42 1t-48 7t-39.5 18.5t-16.5 36.5q0 28 5.5 41.5t13.5 19t18.5 6.5t20.5 4q3 3 3 6q0 5 -4.5 8.5t-9.5 5.5q17 15 38.5 21t44 8t45.5 4t43 10q8 3 17 17 t16.5 31t12 34t4.5 26v2q-7 48 -11 94t-4 94q0 4 3 13.5t8 19.5q4 11 11 25q-8 13 -14 24q-5 10 -9 19t-4 14q0 12 4 23t6 22q6 42 6 85q0 18 -2.5 35.5t-6.5 34.5q-13 61 -13 126q0 76 10 151t10 151q0 26 -9 40.5t-35 22.5q-35 10 -72.5 16t-74.5 6q-28 0 -58.5 -6.5 t-56 -21t-42 -38t-16.5 -56.5q0 -17 2 -33t2 -33q0 -16 -6.5 -27.5t-6.5 -22.5q0 -15 8 -28t8 -28q0 -10 -4.5 -22t-10.5 -24.5t-11.5 -24.5t-8.5 -22q-5 -15 -13 -26t-25 -11q-14 0 -26 9.5t-12 23.5q0 11 5.5 17.5t5.5 15.5q0 10 -4 20.5t-9.5 21t-9.5 21.5t-4 22 q0 14 4.5 27t4.5 27q0 30 -9.5 59t-9.5 59q0 27 6 64t20.5 71t38 57.5t59.5 23.5q25 0 49.5 -5.5t50.5 -5.5q29 0 58 5t58 5q20 0 37.5 -6.5t37.5 -6.5q12 0 20.5 5.5t19.5 5.5q12 0 23.5 -5.5t23.5 -5.5q11 0 20.5 3t19.5 3q15 0 29.5 -4t28.5 -4l121 15l54 4t55 2 q48 0 95.5 -7.5t95.5 -18.5v-1q33 -8 47 -34t18.5 -59.5t3.5 -68.5t1 -60q3 -38 7.5 -76.5t4.5 -76.5z" />
<glyph unicode="U" horiz-adv-x="1273" d="M1251 1352q0 -12 -9 -20.5t-21.5 -14.5t-25.5 -11t-22 -9q-8 -4 -13.5 -9t-11 -10.5t-12 -9.5t-16.5 -7q-13 -3 -23 -3t-19 -1.5t-16 -7.5t-14 -21q-6 -13 -8.5 -30.5t-7.5 -33.5t-14.5 -27t-29.5 -11q0 -11 7.5 -22.5t16 -22.5t15.5 -22.5t7 -22.5q0 -12 -5 -23t-5 -23 l-1 -61q-1 -20 7.5 -39.5t8.5 -40.5q0 -12 -5 -23.5t-5 -24.5q0 -42 8.5 -83.5t8.5 -85.5q0 -29 -5 -62.5t-24 -56.5q1 -14 6 -23.5t10 -20t9.5 -23t4.5 -32.5q0 -18 -3.5 -47.5t-12.5 -57t-24.5 -48t-39.5 -20.5q-2 0 -3.5 0.5t-3.5 0.5l-1 -6v-3q0 -14 8.5 -25t8.5 -25 q0 -7 -8.5 -18t-20.5 -23t-24.5 -23t-20.5 -19q-9 -9 -13.5 -17.5t-9 -15t-12 -11t-22.5 -7.5q-26 -5 -46 -15t-39 -20.5t-41 -18t-53 -7.5q-17 0 -33 4t-32 9.5t-32.5 9.5t-32.5 4q-13 0 -25.5 -1.5t-25.5 -1.5q-10 0 -15.5 1t-12.5 8q-5 6 -15.5 11t-22.5 9.5t-24 8 t-20 5.5q-18 5 -34.5 20t-30 34.5t-24 40.5t-16.5 38q-12 34 -17 69.5t-8 71t-6.5 71t-12.5 70.5q-4 14 -8.5 28.5t-4.5 29.5q0 11 2 21.5t4 21.5q8 42 12.5 85t4.5 86q0 57 -5.5 113t-5.5 113v21t1 21q2 20 8.5 39t6.5 39q0 7 -2 13t-4 13q-12 26 -14 47.5t-4 49.5 q-4 43 -17.5 61t-34 26t-45 13.5t-51.5 25.5q-8 5 -13.5 12.5t-5.5 16.5q0 16 17.5 29t41.5 21t48 12.5t37 4.5q16 0 30.5 -4t30.5 -4q32 0 62 7.5t62 7.5q13 0 40 -5t54 -14.5t47.5 -23t20.5 -30.5q0 -22 -13.5 -41.5t-33.5 -37.5t-43.5 -37t-43.5 -41t-33.5 -49.5 t-13.5 -61.5q0 -20 1.5 -40.5t1.5 -40.5q0 -40 -7.5 -79t-7.5 -80q0 -33 9.5 -59.5t9.5 -41.5q0 -16 -3.5 -29.5t-3.5 -28.5q0 -7 0.5 -13t0.5 -13q0 -16 -4.5 -26t-9.5 -18t-10 -15t-5 -16q5 4 10 7t11 3q7 0 11 -5t6.5 -11.5t3.5 -14t1 -12.5q0 -26 7.5 -51t7.5 -51 q0 -23 -4 -46.5t-4 -47.5q0 -23 3.5 -42.5t26.5 -31.5q4 -2 9 -12t10.5 -21.5t11.5 -23t12 -16.5q12 -11 26 -18t28.5 -13.5t28 -14t24.5 -20.5q9 -11 23 -19.5t27.5 -18t23.5 -20.5t10 -27q0 13 4 21q1 -3 1 -9q0 -8 -4 -12q3 3 7 10l8 14t8 12t9 5q7 0 13 -5t6 -13 q0 -10 -4 -19t-5 -19q10 0 20.5 4.5t19.5 11.5t14.5 16.5t5.5 20.5q0 13 -7.5 16.5t-18.5 3.5q-8 0 -15.5 -1t-15.5 -1h-3q5 15 15 25t23 16.5t27 11t27 9.5q21 8 34 21.5t24 28.5t22 30.5t27 28.5q1 7 1 13v12q0 21 -1.5 41.5t-1.5 41.5q0 23 6.5 46t6.5 46q0 20 -5 38.5 t-5 38.5q0 18 5 35.5t5 35.5q0 29 -5 56.5t-5 55.5q0 38 6.5 74t6.5 73q0 48 -8.5 94t-8.5 94q0 7 0.5 18.5t3 23t7.5 20t15 8.5q-9 1 -22.5 12.5t-26 26t-22 29t-9.5 22.5q-5 -1 -9.5 -1.5t-9.5 -0.5q-14 0 -26.5 5t-24.5 10.5t-25 10.5t-28 5h-5q-4 25 -12.5 48t-8.5 49 q0 20 10.5 32t26.5 18.5t34.5 8.5t33.5 2q28 0 55 -3t55 -3q21 0 39 9.5t38 9.5q11 0 23 -4.5t24.5 -10.5t25.5 -11.5t25 -7.5q19 -3 40.5 -3t42.5 -2t40 -7.5t35 -19.5q8 -7 14.5 -16t6.5 -20z" />
<glyph unicode="V" horiz-adv-x="1252" d="M1256 1394q0 -36 -11.5 -56.5t-30 -33t-42.5 -20t-48.5 -16t-48.5 -22t-43 -37.5q-17 -22 -26 -48.5t-16 -54.5t-15.5 -55.5t-26.5 -51.5q-5 -7 -8.5 -13.5t-3.5 -15.5q0 -12 3 -23.5t3 -22.5q0 -10 -3.5 -34.5t-9.5 -55t-14.5 -63.5t-18 -61t-20 -47t-20.5 -22 q16 -45 16 -98q0 -32 -2.5 -43.5t-7 -15.5t-10 -8t-10.5 -20q-12 -38 -27.5 -75t-15.5 -77q0 -10 -4.5 -29.5t-12.5 -39.5t-18 -35t-22 -15q1 -10 5.5 -19t10 -17.5t10 -18t4.5 -19.5q0 -3 -5.5 -18t-14.5 -33t-20 -35t-23 -24q-8 -5 -19.5 -10.5t-23.5 -10t-24.5 -7.5 t-22.5 -3q-5 0 -20.5 5.5t-33 13t-33 15t-18.5 10.5q-8 8 -16.5 32.5t-17 54t-15.5 57t-12 41.5q-13 35 -25 69.5t-22 69.5q-5 16 -9 31.5t-11 29.5v6q0 15 5.5 28.5t5.5 28.5q0 10 -5 22q-12 38 -22 76t-21 76q-5 18 -13.5 37t-16.5 38.5t-13.5 39t-5.5 37.5q0 29 15 53 q-9 24 -18.5 47.5t-16.5 48.5q-10 37 -13 72t-7.5 69t-14 67.5t-32.5 67.5q-16 23 -29 33.5t-27 15t-31 5.5t-41 5q-33 6 -60 27t-27 58q0 19 12.5 31t32.5 19t45 10.5t49 6t45 4.5t33 7q15 5 29.5 9t31.5 4q21 0 41 -3t41 -5q24 -2 46.5 -4t42 -9t34.5 -21.5t23 -41.5 q5 -15 5 -28q0 -21 -11.5 -35.5t-28 -25t-35.5 -19t-34 -16.5l1 -9q0 -18 -6 -35t-23 -27q17 -11 21 -28.5t4.5 -37.5t2.5 -40.5t15 -36.5q17 -21 21.5 -44t4.5 -48v-37q0 -17 1.5 -33.5t7.5 -32.5q3 -9 7 -17.5t4 -18.5q0 -9 -5 -15t-13 -10q11 -26 22 -54.5t35 -45.5 q-1 -5 -1 -11v-11q0 -14 2 -30t5.5 -32t8.5 -31t12 -27l2 -1v-5q0 -13 -7.5 -23.5t-7.5 -23.5q0 -10 6.5 -22.5t15.5 -25t19 -24t16 -18.5h6q22 0 37 9.5t24.5 24.5t15 34t10.5 38q3 10 8 39t13 60t18.5 55.5t22.5 24.5h2q-2 9 -7 17t-10.5 16.5t-9.5 16.5t-4 17 q0 8 2.5 15.5t6.5 14.5q12 26 19.5 44.5t12 36t7.5 37t6 47.5q1 8 9 30.5t18.5 47t20.5 46t15 28.5v-1q1 5 1.5 8.5t0.5 8.5q0 6 -2.5 12t-2.5 12q0 14 9 24.5t9 24.5t-8 27.5t-19 25.5t-23.5 23t-21.5 20h-29q-11 13 -16.5 28.5t-16.5 28.5q-6 6 -12 13t-6 16q0 11 5.5 25 t8.5 25q4 17 7.5 24.5t9 11t14 5t23.5 6.5q16 6 32 6q9 0 17.5 -1t16.5 -1q11 0 27 4.5t34.5 10t39.5 10t42 4.5q24 0 46 -8t46 -8q8 0 16.5 1t16.5 1q14 0 26.5 -4t24.5 -10q15 -7 31 -11.5t32.5 -9t32.5 -10.5t30 -15v-17v0z" />
<glyph unicode="W" horiz-adv-x="1318" d="M1257 1356v-8.5t-1 -8.5q-2 2 -2 3q-5 -26 -18 -46t-33 -38q-21 -20 -32 -32.5t-17 -26t-9 -30t-9 -43.5q-12 -56 -26 -109.5t-17 -110.5q-2 -28 -6 -54.5t-11 -53.5q-3 -9 -3 -18q0 -14 5.5 -25.5t5.5 -24.5q0 -30 -6.5 -59.5t-15 -59t-15 -58.5t-6.5 -59q0 -26 7.5 -50 t7.5 -50q0 -51 -6.5 -100t-26.5 -96q-8 -19 -10 -39t-4 -39.5t-6.5 -38.5t-17.5 -35q-6 -8 -11 -16t-10.5 -14.5t-12.5 -10.5t-19 -4q-23 0 -46 8t-44 16q-14 5 -24.5 19t-18 31.5t-13 35.5t-8.5 31q-5 16 -5.5 32.5l-1 33t-1.5 33t-7 32.5q-9 23 -11.5 46t-2.5 47 q0 25 1.5 49.5t1.5 49.5t-5 50t-11.5 49.5t-12.5 49t-8 49.5q-2 26 -11 49.5t-9 49.5q0 10 3 17.5t6 13.5t6 11.5t3 11.5q0 16 -6.5 35t-14.5 37.5t-14.5 36.5t-6.5 33q-24 -4 -35.5 -18.5t-16.5 -35t-7 -44t-6.5 -44.5t-15 -37t-33.5 -21q5 -6 12.5 -13.5t14 -16t11.5 -17 t5 -16.5q0 -10 -4 -14.5t-9 -8t-9 -10t-4 -19.5q0 -29 4.5 -58t4.5 -58q0 -31 -11 -60.5t-11 -60.5q0 -14 5.5 -21t5.5 -18t-4.5 -22.5t-10.5 -22.5t-10.5 -23t-4.5 -25q0 -19 7.5 -36.5t7.5 -37.5q0 -27 -9 -59t-25.5 -59.5t-40.5 -46.5t-55 -19q-20 0 -39 8.5t-34 22.5 t-24.5 33t-9.5 39q0 24 4.5 47.5t4.5 47.5q0 13 -3.5 26t-8.5 25.5l-10 25t-7 25.5q-3 16 -4 32t-1 33q0 14 0.5 28t0.5 28q0 35 -6 64t-13 55t-13 52t-6 55q0 23 -7 44.5t-7 44.5q0 11 5 20t5 20q0 12 -6.5 25t-14.5 27t-14.5 28t-6.5 29q0 11 5 19t11.5 16.5t11.5 17.5 t5 22v20q0 9 2.5 18t10.5 15q24 -5 31.5 -20.5t9 -34.5t2.5 -38t12 -32q6 -8 12.5 -32t11.5 -52t9.5 -54t6.5 -39q3 -20 10 -38t23 -31q-7 -23 -7.5 -48.5t-0.5 -49.5q0 -9 0.5 -26t4 -33.5t11 -29t21.5 -12.5q30 0 42.5 22.5t12.5 48.5q0 21 -4 42t-4 42q0 24 9.5 42.5 t20.5 38.5q16 28 20.5 63.5t4.5 72.5q0 16 -0.5 31.5t-0.5 29.5q0 17 0.5 34.5t3.5 34.5q3 18 9 36t12 35.5t10.5 35t4.5 36.5q0 15 -3 29.5t-3 29.5q0 11 4 21.5t4 21.5q0 23 -15 43.5t-37.5 36t-48 24.5t-45.5 9q-19 0 -36 -10q-14 -9 -27 -12t-25 -6t-23.5 -9t-21.5 -21 q-4 -5 -9.5 -13.5t-10.5 -18.5t-8.5 -19t-3.5 -15q0 -5 6.5 -9.5t15 -10.5t15 -14t6.5 -21q0 -6 -2 -15.5t-5.5 -19t-9 -16.5t-12.5 -7q-13 0 -26.5 17t-25.5 39t-21.5 44t-15.5 32q-9 16 -18 24t-18.5 11t-21.5 4t-28 4q-9 2 -21 6.5t-22.5 11.5t-17.5 16.5t-7 20.5 q0 16 12 28t29 20.5t35.5 12.5t31.5 4q15 0 29 -6t28 -6q19 0 36.5 9.5t39.5 9.5q18 0 34.5 -4.5t33.5 -9.5t34 -9.5t35 -4.5q20 0 37.5 7.5t34 16.5t34 16.5t37.5 7.5q41 0 80 -9.5t80 -9.5q8 11 18.5 18t24.5 7q16 0 32.5 -7t34 -15.5t36.5 -15.5t39 -7q18 0 34.5 5.5 t33 12.5t34.5 12.5t39 5.5q34 0 67.5 4.5t67.5 4.5q25 0 49.5 -5.5t45.5 -19.5q1 -7 1.5 -14t0.5 -15zM1024 1196q0 26 -16 48t-41 38t-54 25t-55 9q-21 0 -38.5 -14t-34.5 -25q-21 -13 -31 -40t-10 -50q0 -18 8 -32t18 -26t18 -23t8 -23q0 -8 -3.5 -16l-7 -16t-7 -16.5 t-3.5 -18.5q0 -18 7 -36.5t15.5 -39t15.5 -44t7 -51.5q0 -13 -1.5 -25t-1.5 -25q0 -6 6 -9t12.5 -8t12.5 -15.5t6 -31.5q0 -20 -6 -39.5t-6 -39.5v-8q11 -10 18 -21t7 -27q0 -14 -4 -26t-7 -26h21q24 0 37 9t13 36q0 12 -1.5 24.5t-1.5 25.5q0 11 4.5 22.5t10 23.5 t11.5 23.5t9 22.5q10 36 13.5 73t8.5 73q5 35 14 69.5t9 69.5q0 18 -6 35t-6 34q0 15 5 28.5t11 27t11 27t5 28.5z" />
<glyph unicode="X" horiz-adv-x="1192" d="M1187 128q-5 -23 -10.5 -47t-16.5 -44q-8 -14 -26.5 -21.5t-40 -11.5t-43.5 -4.5t-36 -0.5q-60 0 -119.5 6.5t-119.5 10.5q-23 1 -43.5 2.5t-37 9t-26 23t-9.5 44.5q0 45 12 68.5t27 38t27 25.5t12 30q0 20 -10 36.5t-21 33.5q-16 25 -24.5 55.5t-19.5 57.5t-31 45 t-59 18q-21 0 -27.5 -7.5t-8.5 -19t-4.5 -24t-15.5 -21.5q-18 -13 -34 -36t-28 -49t-19 -53.5t-7 -49.5q0 -18 13 -34.5t29 -33.5t29 -36t13 -43q0 -5 -2 -15.5t-10 -10.5q-5 0 -9.5 3t-9.5 3q-4 0 -6.5 -4t-2.5 -8t5 -4h2q4 0 7 -1t3 -9q0 -12 -9 -19t-21.5 -10.5t-25.5 -4 t-21 -0.5q-20 0 -38.5 2t-38.5 2q-54 0 -108.5 -4.5t-109.5 -4.5q-15 0 -34 1t-36 6.5t-28.5 17t-11.5 32.5t12 38.5t27 30.5q18 15 39 23.5t43 15.5t43.5 15t39.5 23q26 21 43.5 49.5t32 59t29.5 61t38 55.5q7 8 14 21t12 28t8 29.5t3 25.5q0 9 7.5 14.5t13.5 10.5 q19 14 28 27.5t17 35.5q10 30 25.5 60t15.5 62q0 13 -5.5 33.5t-14 41.5t-18.5 40t-19 29q-8 9 -15 14t-12 9.5t-8 12t-3 22.5q0 16 -5 29t-13 24.5t-17.5 22.5t-17.5 23q-13 19 -21.5 40.5t-16 43.5t-17 43t-24.5 39q-18 21 -30 34t-25 20.5t-30.5 10t-45.5 2.5 q-13 0 -33 7.5t-38.5 19t-32 26.5t-13.5 30q0 14 13.5 21t31.5 10.5t36 4t27 1.5q30 2 60 4.5t60 2.5q20 0 39.5 -2t39.5 -2q35 0 68 3q31 3 49 -4t27 -18t11.5 -21.5t2.5 -14.5q0 -15 -12.5 -27.5t-28 -24.5t-29 -24t-15.5 -25q22 -65 51.5 -125t74.5 -114q4 -5 10 -12 t12.5 -13.5t14 -11t14.5 -4.5q3 0 11 6.5t18.5 15.5t22 17.5t20.5 12.5q15 6 24.5 28t17 49t14.5 53t16 41q8 11 19 27.5t11 30.5t-11 22t-24 16t-24 20.5t-11 35.5t11.5 37.5t33.5 19.5q33 7 68 12t69 5q17 0 33 -6t33 -6q19 0 36 8t37 8q19 0 38.5 -3t37.5 -8 q9 -3 21 -9.5t22.5 -15.5t18 -19.5t7.5 -21.5q0 -15 -19 -26t-44 -19t-50 -13.5t-36 -8.5q-42 -12 -72 -36.5t-51.5 -56t-37 -68t-29.5 -73.5q-15 -39 -36 -77t-40 -77t-32.5 -79t-13.5 -83q0 -39 11 -66.5t24 -50t24 -42t11 -40.5q0 -5 7.5 -13.5t17.5 -17.5t19.5 -18 t12.5 -15q19 -32 33.5 -69.5t31.5 -72.5t40.5 -65t60.5 -48q17 -9 35.5 -12.5t37.5 -6t38 -4.5t37 -7q17 -2 27.5 -7.5t16.5 -13.5t8.5 -17.5t4.5 -18.5z" />
<glyph unicode="Y" horiz-adv-x="1149" d="M519 1302q-12 -3 -21 -8.5t-18 -13t-19.5 -17.5t-25.5 -23q-3 -20 -3 -40q0 -21 5 -33.5t11 -21t11 -16t5 -17.5q0 -22 12.5 -46t30.5 -46.5t37 -43t33 -35.5h3q9 0 20.5 8t22.5 19.5t18.5 24.5t7.5 22q0 10 7 18.5t16.5 17t19 16t14.5 16.5v43q6 6 11.5 11t9.5 11t6 14 t2 21q0 8 -0.5 14.5t-0.5 14.5q7 11 14 21.5t15 20.5q9 21 0.5 30t-25 12t-35.5 3.5t-31 3.5l-12 2q-12 2 -27 7.5t-26 28.5q-12 24 -7.5 42.5t17.5 31.5t31 21t33 12q26 8 51.5 14t51.5 6q30 0 59.5 -5.5t59.5 -5.5q32 0 63.5 6t63.5 6q21 0 40 -3t34.5 -10.5t26.5 -22 t16 -36.5q5 -23 2 -37t0 -22q-14 -36 -37.5 -52t-50.5 -23t-55 -11.5t-50 -17.5t-36.5 -41t-14.5 -81q-14 -9 -29 -24.5t-28.5 -33.5t-25 -36.5t-17.5 -33.5q11 -4 12 -12q-8 -14 -13 -30t-13 -30q-6 -11 -12.5 -16.5t-12 -12t-9 -17t-3.5 -30.5q0 -9 -2 -17.5t-11 -15.5 q-25 -20 -40.5 -50.5t-24 -65t-11.5 -70t-3 -65.5q0 -27 8.5 -53t8.5 -53t-4 -54.5t-4 -54.5q0 -14 2 -26.5t2 -25.5q0 -14 -0.5 -23t-0.5 -16q0 -11 5 -19t22 -28q4 -5 11.5 -16t13.5 -11q17 0 33.5 4.5t33 10t33 10t34.5 4.5q2 0 11.5 -2t21 -5t23 -5.5t18.5 -3.5 q4 -7 7.5 -13.5t6.5 -14.5q9 -4 20.5 -8.5t21.5 -11t17 -15.5t7 -21q0 -15 -4.5 -29.5t-4.5 -29.5q0 -13 -23 -20t-53 -10.5t-58 -4.5t-38 -1q-68 0 -134.5 5t-134.5 5q-43 0 -84.5 -7.5t-83.5 -7.5q-23 0 -45 6t-45 6q-26 0 -50.5 -8.5t-50.5 -8.5q-15 0 -27 4 q0 13 -5.5 24t-12 21.5t-12 21.5t-5.5 24q0 24 21.5 39.5t54.5 25t73.5 14.5t79.5 7.5t71 3.5t49 4q10 19 16 47t9.5 60.5t4.5 67.5t1 69q0 46 1 85.5t-1.5 75.5t-9 69.5t-21.5 67.5q-13 29 -34.5 51t-37.5 49q-17 29 -27 61.5t-27 62.5q-35 63 -64.5 127.5t-52.5 133.5 q-14 2 -21 7t-11.5 11t-9.5 12.5t-15 11.5q-12 6 -34 9.5t-48 7t-52.5 8.5t-48.5 12.5t-36 20t-14 31.5q0 21 14 42t28 36q16 17 42.5 27t56 15.5t60 7t55.5 1.5h21l64 -1q26 0 49 -4.5t45 -10.5t44.5 -12.5t48.5 -10.5q19 -1 31 -18.5t16 -39.5t0.5 -43t-15.5 -30z" />
<glyph unicode="Z" horiz-adv-x="1213" d="M1127 449q0 -17 -6.5 -32t-6.5 -32q0 -19 6 -36.5t6 -36.5q0 -16 -6 -28.5t-13.5 -23t-13.5 -20t-6 -19.5q0 -6 1.5 -9.5t3.5 -7t3.5 -10t1.5 -18.5v-16v-16t-0.5 -25t-1.5 -24t-2 -13q-8 -12 -9 -24t-3.5 -22.5t-10 -17t-27.5 -6.5q-23 0 -45.5 3.5t-45.5 3.5 q-38 0 -75.5 -9.5t-76.5 -9.5q-54 0 -108 5.5t-108 5.5q-12 0 -23 4.5t-23 4.5q-15 0 -34 -11t-46 -11q-17 0 -33 5t-32 10.5t-32 10.5t-34 5q-39 0 -77 -7.5t-77 -7.5q-26 8 -35 26.5t-9 41.5t3.5 48t2.5 46q-1 19 -4 26t-6 10t-6 5t-3 11q-12 20 -14 43q11 0 15 5.5 t4 15.5q0 16 11 38.5t29.5 47t42 49t47.5 43.5t46.5 31t40.5 12h6q2 8 2 13q0 10 -6.5 13.5t-14 5t-14 3.5t-6.5 10q0 12 9 26.5t22 28.5t27 25.5t24 17.5v8q0 22 11 46t27 46.5t35 43t35 35.5q10 10 17 25.5t13 31.5t13.5 29.5t19.5 19.5q16 8 22 11.5t8.5 7t4 11t7.5 23.5 q6 15 11.5 15.5t9 1t6 6.5t2.5 31q0 15 2 24.5t6 17t10.5 15t15.5 18.5q9 10 19 24t18 29t13.5 31t5.5 30q0 27 -16.5 36t-38.5 11.5t-44 6t-33 20.5q-12 0 -22.5 -7t-20.5 -14.5t-19.5 -14t-20.5 -6.5t-24.5 8t-33.5 8q-18 0 -35.5 -1.5t-35.5 -1.5q-17 0 -33 4t-33 4 q-20 0 -32 -12t-18.5 -29t-8.5 -37t-2 -35q0 -23 2 -47t2 -48q0 -12 -1 -34.5t-5.5 -45t-14.5 -39.5t-27 -17q-7 0 -13 2.5t-11 5.5q-26 15 -32 34t-6 42q0 7 0.5 14.5t0.5 15.5q0 4 -2 23.5t-4 42t-4.5 40.5t-2.5 20q-2 -2 -4.5 -4t-5.5 -2t-5 5t-3 12t-1.5 13.5t-0.5 8.5 q0 23 3 44.5t3 44.5q0 17 6.5 28t15.5 20l18.5 18.5t16.5 22.5q6 3 12 3q12 0 23 -4.5t23 -4.5q5 0 11.5 5.5t16.5 12.5t23.5 12.5t32.5 5.5q38 0 74.5 -11t74.5 -11q30 0 52 14q25 15 48.5 20t52.5 5q26 0 52.5 -2.5t53.5 -2.5q40 0 79 5.5t79 5.5q15 0 31 -1t31 -5 q10 -3 13 -6.5t4.5 -8l3 -9t7.5 -9.5q9 -7 21 -9t23.5 -10t19.5 -28t8 -63q0 -13 -11.5 -31t-17.5 -30q-8 -17 -12.5 -34.5t-13.5 -34.5q-5 -9 -12.5 -19l-15 -20t-13 -21t-5.5 -22q0 -2 0.5 -3t0.5 -3q-22 0 -35.5 -14.5t-23 -34t-17 -38.5t-16.5 -27q-15 -13 -30 -25 t-35 -17q-6 -19 -16.5 -36.5t-21.5 -35t-20.5 -35t-12.5 -36.5q-2 -12 -7 -15t-9.5 -4.5t-8 -7t-3.5 -22.5q0 -8 -5 -10.5t-12 -3.5t-14.5 -2t-11.5 -6q1 -5 1.5 -9t0.5 -9q0 -15 -6.5 -28t-17 -23.5t-24 -18.5t-26.5 -12l1 -12q0 -15 -9 -26.5t-19.5 -23t-19.5 -24.5 t-9 -32q0 -8 -5 -14.5t-12 -12.5t-14.5 -11t-12.5 -9q-14 -11 -19 -20t-8 -17t-5.5 -17.5t-9.5 -22.5q-6 -10 -16 -22t-19 -25t-16 -26t-7 -24t6.5 -19t15.5 -13.5t20 -8.5t20 -3q18 0 36 4.5t37 4.5q57 0 112.5 -7.5t112.5 -7.5q21 0 54 4.5t64.5 15t54.5 29t23 45.5 q0 5 -0.5 9.5t-0.5 9.5q0 17 2.5 38.5t5 39.5t5 29t2.5 7q0 7 -5.5 11.5t-5.5 12.5q0 11 5.5 24.5t5.5 23.5q0 7 -0.5 14.5t-0.5 17.5q0 11 4 16.5t9.5 8.5t9.5 6t4 9q0 8 -5.5 15t-5.5 16q0 12 12 15t21 3q21 0 29.5 -6.5t12 -15.5t6 -20t11.5 -20q6 -7 14.5 -9.5t17.5 -4 t18 -3.5t15 -9q-4 -11 -4 -25q0 -21 8.5 -41t8.5 -41zM212 1137q0 9 -8 13t-16 5q-2 -5 -2 -9.5v-9.5t1.5 -12.5t7.5 -7.5q7 0 12 7t5 14zM1001 200q0 6 -4.5 10.5t-10.5 4.5q-10 0 -12.5 -11t-2.5 -19q8 0 19 2.5t11 12.5z" />
<glyph unicode="[" horiz-adv-x="639" d="M607 1483q0 -26 -11 -37t-28 -15t-36.5 -2.5t-35.5 1.5q-9 0 -30.5 -4.5t-44 -12t-39.5 -17.5t-17 -20q0 -14 3 -26.5t3 -24.5q0 -14 -5 -26.5t-5 -26.5t3 -29t3 -31q0 -3 -7 -18t-7 -29q0 -21 7 -41.5t7 -42.5q0 -14 -3 -25t-3 -24q0 -25 8.5 -47t8.5 -45t-7.5 -44.5 t-7.5 -43.5q0 -29 6 -57.5t6 -57.5q0 -24 -4 -47.5t-4 -48.5q0 -28 7.5 -54.5t7.5 -54.5q0 -14 -5.5 -26.5t-5.5 -28.5q0 -17 2 -33.5t2 -33.5q0 -16 -6 -30t-6 -30q0 -10 3.5 -19t8 -17.5t8 -16t3.5 -14.5q0 -10 -4 -20t-4 -19q0 -17 4 -32.5t4 -31.5q0 -40 -10.5 -79 t-10.5 -81q0 -19 9 -29t22 -14.5t28 -5t27 -0.5q15 0 34.5 -1t36 -6.5t28 -17t11.5 -32.5q0 -35 -23 -48t-54 -13q-42 0 -82 9t-80 9q-13 0 -24 -5t-23 -5q-38 0 -54.5 21t-21.5 50.5t-2.5 62t2.5 56.5q0 37 -9 71.5t-9 72.5q0 17 1 34.5t1 34.5q0 29 7 58.5t7 58.5 q0 14 -6 25.5t-6 25.5q0 16 7 31.5t7 32.5q0 16 -3.5 32t-8 32t-8 32t-3.5 33q0 38 9.5 75.5t9.5 75.5q0 29 -5 58.5t-5 58.5q0 15 3 29.5t3 29.5q0 11 -4 21.5t-4 21.5q0 23 6 46t6 44q0 34 -6 68t-6 68q0 32 8 62.5t8 62.5q0 17 -1 34.5t-1 34.5q0 22 1.5 43.5t9 39t23 28 t44.5 10.5q12 0 23 -5t24 -5q31 0 62.5 3t62.5 3q21 0 40.5 6t41.5 6q31 0 54.5 -13t23.5 -48z" />
<glyph unicode="\" horiz-adv-x="1141" d="M44 1483q0 34 27.5 53t65.5 19q25 0 36.5 -5t21.5 -12h-1q5 -3 10.5 -7t24.5 -10q0 -6 5 -18t12 -25t15.5 -24.5t15.5 -15.5q2 -19 12.5 -42.5t22 -44.5t21.5 -36t12 -17l11.5 -11.5t9.5 -11.5l9 -17q21 -36 39.5 -69.5t32.5 -73.5q11 -30 26.5 -62t45.5 -58 q0 -11 8.5 -32.5t20 -44t24.5 -42t22 -26.5v-11q0 -10 4.5 -17t10.5 -15v1q6 -7 17 -26v1q7 -11 9.5 -20.5t5.5 -19.5h-1q6 -19 20.5 -42t31.5 -47.5t34 -51t28 -51.5q14 -32 27.5 -58.5t28.5 -52t33.5 -52.5t43.5 -60q19 -28 32.5 -48t22.5 -34.5t15.5 -24.5t13.5 -18 q20 -17 34 -40.5t38 -51.5q19 -21 34 -44t15 -52q0 -16 -6.5 -33t-18.5 -31.5t-29.5 -24t-38.5 -9.5q-26 0 -46 17t-34 39.5t-22.5 45t-10.5 33.5q-12 13 -30 37.5t-35.5 50.5t-31 49.5t-15.5 35.5l-10 15q-12 20 -21.5 37t-17 34.5t-13.5 36.5t-9 44q-9 7 -14 16.5t-9 19 t-8 18.5t-12 16q-25 23 -45 51t-20 59v2q-11 10 -23.5 27t-23.5 35.5t-18.5 36.5t-7.5 30v7q-26 22 -38 41.5t-21.5 39t-21.5 39.5t-37 42q-2 9 -7.5 16t-11.5 15v-1q-10 11 -17.5 23t-7.5 28q0 4 1 6.5t2 4.5q-21 31 -38.5 61.5t-34.5 60.5q-16 8 -25.5 20.5t-16.5 27.5 t-13 31t-14 32v-1q-8 14 -14 28.5t-10 29.5q-29 26 -52.5 58t-23.5 68q0 8 1 15.5t3 15.5q-15 5 -29.5 11t-26 14t-18.5 19.5t-7 27.5z" />
<glyph unicode="]" horiz-adv-x="640" d="M463 772q0 -38 -9 -75.5t-9 -75.5q0 -29 5 -58.5t5 -58.5q0 -16 -3 -30t-3 -30q0 -11 4 -21.5t4 -21.5q0 -23 -6 -45.5t-6 -44.5q0 -34 6 -67.5t6 -67.5q0 -23 -4.5 -45t-7.5 -45q-5 -26 -3.5 -53.5t1.5 -55.5q0 -21 -2 -41.5t-10 -37t-23.5 -27t-42.5 -10.5q-13 0 -24 5 t-23 5q-31 0 -62.5 -3t-62.5 -3q-22 0 -41.5 -6t-40.5 -6q-31 0 -54.5 13t-23.5 48q0 25 11 36.5t27.5 15.5t36 2.5t35.5 -1.5q9 0 31 4.5t44 11.5t39 16.5t17 20.5q0 14 -3 26.5t-3 25.5q0 14 5 26.5t5 26.5t-3 29t-3 30q0 10 7.5 21.5t7.5 25.5q0 22 -7.5 42.5t-7.5 41.5 q0 14 3 25.5t3 24.5q0 24 -8 46.5t-8 45.5t7 44.5t7 43.5q0 29 -6 57t-6 57q0 25 4 48.5t4 48.5q0 28 -7 54t-7 54q0 14 5 27t5 29q0 17 -2 33.5t-2 33.5q0 16 6 30t6 30q0 20 -10 36.5t-10 30.5q0 9 3 19.5t3 19.5q0 17 -4 32.5t-4 31.5q0 40 10 79t10 80q0 26 -14.5 36 t-36.5 12.5t-47 2t-47 2.5t-36.5 14.5t-14.5 39.5q0 35 23.5 48t54.5 13q42 0 81 -9t81 -9q12 0 23 5t24 5q37 0 54 -21t21.5 -50.5t2.5 -62t-2 -56.5q0 -38 9 -72.5t9 -71.5q0 -17 -1 -34.5t-1 -34.5q0 -29 -6 -58.5t-6 -58.5q0 -14 5 -25.5t5 -25.5q0 -16 -7 -31.5 t-7 -32.5q0 -16 3.5 -32t7.5 -32t7.5 -32t3.5 -33z" />
<glyph unicode="^" horiz-adv-x="819" d="M158 789q-8 -20 -22.5 -29t-31.5 -9q-18 0 -36.5 8t-33.5 20t-24.5 27t-9.5 30q0 10 7.5 27t19 35t25.5 33.5t26 23.5q0 8 -1 16.5t-1 17.5q0 17 14 29q13 14 18.5 25.5t8 23t5.5 23t11 25.5q13 22 30.5 42t35.5 37q15 36 26 64t23.5 53.5t29 50.5t41.5 56l14 -1 q26 0 50 7.5t49 7.5q13 0 21 -5t13.5 -12.5t9.5 -17t10 -18.5v-25q4 -3 9.5 -4t10.5 -1.5t10 -2t8 -6.5q6 -9 8 -18l4 -18t5.5 -19t12.5 -22q8 -10 15.5 -20t15.5 -21q10 -12 15.5 -26.5t10.5 -29t11 -28.5t17 -25q9 -10 17.5 -17t16 -14.5t15 -16.5t13.5 -22 q11 -23 17 -35.5t9 -18.5t5 -8t5 -4.5t8 -6.5t15 -15q32 -36 45.5 -67.5t13.5 -55.5q0 -19 -7 -34t-18 -25t-24 -15t-26 -5q-18 0 -32 9.5t-17 30.5q-2 14 -6.5 20t-9 9t-9 4t-6.5 6q-4 10 -8 19.5t-8 19.5q-3 8 -13 18.5t-20.5 21t-19.5 20t-10 16.5q0 1 2.5 3t5.5 4l6 4 t3 4q0 1 -5.5 2t-11.5 2t-11.5 1h-6.5l-3 13q-8 31 -23 57t-32.5 50.5t-34 48.5t-26.5 53l-11 -2q-1 0 -6.5 10t-11.5 21.5t-11.5 21.5t-6.5 10h-19.5t-4.5 2q0 1 1 2t1 3t-4 3t-18 3q-1 -2 -10.5 -18.5t-21 -37t-21 -37.5t-9.5 -19q-1 -4 -1 -14q0 -31 -5.5 -42.5 t-12.5 -19t-14.5 -18t-12.5 -37.5q-3 -13 -19 -28.5t-25 -26.5q-16 -18 -24 -40.5t-12 -46.5t-6 -47t-5 -42z" />
<glyph unicode="_" horiz-adv-x="1396" d="M1286 -317q-4 -20 -10.5 -37.5t-18.5 -26.5q-23 -3 -47 -5t-47 -5q-9 -2 -17 -6t-16 -4q-14 0 -26.5 8t-25.5 8q-8 0 -16 -3t-16 -3t-14 3t-14 3q-16 0 -30 -3.5t-29 -6.5q-51 -6 -101 -7t-101 -1q-16 0 -29 -5.5t-29 -5.5q-8 0 -16 5.5t-17 5.5q-8 0 -16.5 -4.5 t-18.5 -6.5q-17 -3 -33 -1.5t-33 1.5q-12 0 -23 -5t-23 -5q-11 0 -20 7t-20 7q-14 0 -27.5 -8t-28.5 -8q-11 0 -19 5t-18 5q-14 0 -27 -11t-27 -11q-18 0 -32 10.5t-29 24.5q0 2 0.5 4.5t0.5 5.5q0 14 -5 25.5t-5 25.5q0 31 17.5 46t41 20.5t48 4.5t38.5 -1q59 0 116 2 t116 2q27 0 53.5 8.5t52.5 11.5q15 2 31 1.5t31 2.5q11 2 20.5 5t19.5 3q20 0 39.5 -7t39.5 -7q29 0 58 2.5t58 5.5q11 2 19.5 6.5t19.5 4.5q14 0 27.5 -5.5t26.5 -7.5q30 -5 59 -7t58 -13q8 -14 17.5 -25t16.5 -28z" />
<glyph unicode="`" horiz-adv-x="446" d="M446 1237q0 -9 -4.5 -18.5t-11.5 -17.5t-15.5 -13.5t-17.5 -5.5q-20 0 -30.5 13t-24.5 26q-8 6 -18.5 9t-18.5 9t-13 15t-12 12q-27 15 -39.5 22.5t-23 14t-24 14t-42.5 22.5q-12 6 -26 8.5t-29 4t-29 4.5t-26 10q-10 7 -17.5 19t-13 25.5t-8 27.5t-2.5 26q0 13 3.5 26 t10.5 23t17.5 16.5t25.5 6.5q14 0 35.5 -4.5t34.5 -13.5q11 -8 18.5 -25.5t20.5 -28.5q34 -30 50.5 -45t30.5 -25.5t32.5 -20.5t56.5 -30q10 -5 28.5 -18t36.5 -29t31.5 -32t13.5 -27z" />
<glyph unicode="a" horiz-adv-x="1158" d="M1148 175q0 -17 -6 -32t-11 -31q-4 -14 -5.5 -23t-4.5 -15.5t-9.5 -12t-20.5 -12.5q-30 -16 -63.5 -32.5t-67.5 -16.5q-29 0 -54.5 13.5t-47 30t-39 30.5t-29.5 14q-13 0 -22.5 -7t-19 -15t-21 -15t-28.5 -7q-14 0 -29 -5t-30 -11.5t-30.5 -13t-28.5 -10.5 q-45 -12 -90.5 -14t-91.5 -2q-12 0 -37 0.5t-50.5 5t-45 14.5t-19.5 28q0 4 1 7q-7 -8 -16 -13t-20 -5q-16 0 -39 22t-44 51t-36 57.5t-15 42.5q0 11 6.5 20t6.5 20q0 14 -3.5 26.5t-3.5 26.5q0 18 7 38.5t17 41t21 40t20 36.5q10 20 28 32t38 21l40 18t35 24q15 -17 39 -17 q25 0 49 7.5t49 7.5q20 0 38.5 -4t38.5 -4q22 0 32.5 5.5t26.5 19.5t40.5 21.5t51 12t53 9.5t47.5 14.5t34 26t13 45.5q0 32 -18.5 67.5t-47.5 65t-64 48.5t-67 19q-4 0 -8 -1t-7 -1q-24 -4 -54 -5.5t-56 -9t-44 -25t-18 -51.5q0 -20 3.5 -39.5t3.5 -39.5q0 -30 -14.5 -50 t-37 -32t-49.5 -16.5t-52 -4.5q-30 0 -52 8t-36 37q-11 21 -23.5 45.5t-12.5 49.5q0 27 9.5 50.5t21.5 46t23.5 45t16.5 48.5q7 4 19.5 8t27 8t28 7.5t22.5 6.5q24 7 46.5 16.5t46 17.5t47 14t48.5 7l31 1q43 0 88 -7.5t88 -23.5t81.5 -39.5t68.5 -55.5q22 -24 36.5 -56.5 t23 -68.5t12 -72.5t3.5 -67.5q0 -42 -2.5 -82.5t-2.5 -82.5q0 -40 4.5 -79.5t10.5 -79t10.5 -79t4.5 -78.5q2 -24 6.5 -29.5t9.5 -5.5q22 0 35.5 13.5t24.5 30t24 30.5t33 14q9 0 18.5 -1t17.5 -4.5t13 -10t5 -17.5zM819 424q0 6 -0.5 21t-2.5 30.5t-6.5 27.5t-13.5 12 q-2 0 -5 -1.5t-5 -1.5q-38 -21 -65 -34.5t-53.5 -22t-56.5 -11.5t-75 -3q-6 0 -33 -5t-59 -11.5t-60 -13t-35 -8.5q-13 -5 -18.5 -10t-8.5 -11t-6 -12.5t-11 -13.5q-10 -8 -21.5 -13t-21.5 -15q-15 -15 -28 -39.5t-13 -46.5q0 -27 14 -48t37 -36t52 -26t58.5 -17t57 -9 t47.5 -3q24 0 57 3.5t66 11t62 20.5t46 33q7 8 10 14.5t6.5 13t8 13.5t14.5 15q23 19 35.5 42t18.5 48t7 52t1 55z" />
<glyph unicode="b" horiz-adv-x="1158" d="M1079 514q0 -17 -8 -30t-28 -14q6 -19 18 -36t12 -38q0 -14 -4.5 -27.5t-10 -26.5t-11.5 -26t-9 -26q-5 -20 -22.5 -56.5t-39 -75.5t-43.5 -72.5t-37 -47.5q-11 -10 -23 -14t-24 -6t-25 -3.5t-25 -6.5q-24 -11 -45.5 -25.5t-48.5 -14.5q-11 0 -20 5t-17.5 11t-17.5 11 t-20 5q-13 -8 -33 -13t-41.5 -8t-42 -4t-35.5 -1q-50 0 -84 22.5t-63 60.5q-7 -2 -15 -7t-16 -11t-15 -10.5t-11 -4.5l-2 13l-6 7q-9 0 -15.5 -5.5t-12 -12.5t-12 -12.5t-16.5 -5.5q-11 0 -21 3.5t-10 17.5q0 11 4.5 19.5t4.5 19.5q0 13 -3 25t-3 24q0 13 2.5 25t2.5 25 q0 15 -4.5 30t-9.5 29.5t-9.5 29t-4.5 30.5q0 21 9 40t9 40q0 7 -2 11.5t-4 8t-4 9t-2 16.5t0.5 23.5t0.5 17.5q0 16 -3 31t-3 31q0 26 7 52t7 52q0 35 -5.5 70t-5.5 71q0 13 3.5 26t8 26t8 25.5t3.5 26.5q0 27 -4 53t-8.5 52.5t-8 53t-3.5 53.5q0 16 0.5 31.5t0.5 31.5 q0 48 -16 71.5t-40.5 34t-52.5 12.5t-52.5 6.5t-40.5 17t-16 43.5q0 27 14 43t34.5 24.5t44.5 11t44 2.5q52 0 103 -9.5t103 -11.5q12 -3 15 -11t1.5 -20t-4.5 -27t-3 -32q0 -33 -1.5 -66t-1.5 -60q0 -9 0.5 -32t2 -51.5t5 -60t9 -57t13.5 -42.5t20 -17q10 0 18.5 5t16.5 12 t15.5 14.5t16.5 11.5q21 9 46.5 13.5t49.5 4.5q9 0 18 5t18 10.5t19 10.5t22 5q14 0 27.5 -4.5t26 -10.5t26 -11.5t27.5 -6.5q20 -2 40.5 -4.5t39.5 -10.5q11 -5 16 -12t14 -12q11 -7 21 -8l20 -2t21 -4.5t25 -14.5q14 -12 29.5 -24.5t29 -26.5t24 -30t14.5 -35 q7 -38 21 -84t36 -78q16 -23 26.5 -50t10.5 -56zM976 473q-1 13 -10.5 20t-20 11.5t-17 9.5t-1.5 15q2 8 6.5 10.5t9.5 2.5q-2 18 -17 42t-22 44q-6 15 -8 28t-6 24t-11.5 20.5t-23.5 19.5q-12 7 -19.5 11t-13 8.5t-10 11.5t-10.5 21q-6 16 -14.5 22.5t-19 9.5t-23 5 t-25.5 7q-33 12 -63 20.5t-66 8.5q-68 0 -114.5 -20.5t-76.5 -58t-45.5 -89t-20.5 -112.5q-2 -24 -7.5 -48t-11.5 -47.5t-11 -47.5t-5 -48q0 -11 1 -15.5t9 -12.5q17 -20 19.5 -42t4 -42.5t8.5 -37t32 -24.5q15 -5 22.5 -10.5t12.5 -12.5t9.5 -15.5t12.5 -18.5q21 5 43 7 t43 7q0 -13 12.5 -21t29.5 -12t34.5 -5.5t26.5 -1.5q17 0 36 1.5t36.5 6.5t33 14.5t24.5 26.5q15 26 35.5 37.5t41 20.5t38 22.5t26.5 42.5q11 35 23 71.5t12 74.5q0 13 -2.5 25.5t-7.5 24.5q12 -6 24.5 -15t26.5 -9q5 0 7.5 3.5t2.5 8.5z" />
<glyph unicode="c" horiz-adv-x="1121" d="M1035 206q0 -10 -7.5 -14t-14.5 -8q-11 -6 -18 -14t-13 -17.5t-11 -20t-11 -19.5q-14 -21 -38.5 -29t-48.5 -15t-43.5 -19.5t-24.5 -42.5h-5q-23 0 -42.5 -8t-39 -17.5t-39.5 -17.5t-42 -8q-12 0 -22.5 4t-21 9t-21 9t-22.5 4q-16 0 -31 -2t-30 -2q-11 0 -26 2.5t-28 8.5 t-22 15.5t-9 23.5q0 5 1 8q-5 -5 -11 -6.5t-12 -1.5q-30 0 -55.5 13.5t-48 33t-42 42t-38.5 41.5q-23 23 -35.5 53t-29.5 58q-36 58 -44 117.5t-8 124.5q0 12 1.5 27.5t6.5 22.5q4 5 10 7.5t11.5 5t9.5 5.5t4 9q0 14 -7 25.5t-7 25.5q0 10 4.5 17t9.5 15q8 13 14.5 43.5 t14 61t19 54t30.5 23.5q14 0 26 -4t26 -4q12 0 23 3l1 8q0 12 -7.5 15t-16 4t-16 2.5t-7.5 10.5q0 6 5.5 10.5t13 8t15.5 6.5t12 6q10 8 14 15.5t7.5 14.5t10.5 12t23 9q14 3 28 3.5l28 1t28 1.5t28 5l-10 10q5 9 14 14.5t20.5 8.5t23 3.5t20.5 0.5q35 0 68 -9t66 -9 q14 0 27.5 3.5t27.5 3.5q21 0 39.5 -10.5t35.5 -19.5l4 -1q9 0 15 7t12 7q5 0 8 -4.5t6 -8.5q8 -9 21.5 -11.5t18.5 -10.5q7 -12 16 -16.5t18 -6.5t19 -4t19 -9v-28q20 -26 37.5 -39.5t31 -28t21 -36t7.5 -62.5q0 -44 -7.5 -77t-26 -55.5t-49.5 -34t-77 -10.5l-65 1 q-8 13 -23 36.5t-30 49t-26.5 48t-11.5 34.5q0 15 2.5 30t2.5 30q-7 19 -18.5 31t-26.5 18.5t-32.5 8.5t-35.5 2q-26 0 -51.5 -4t-49.5 -13q0 9 -4.5 16.5t-15.5 7.5q-14 0 -34 -10.5t-40.5 -25.5t-37.5 -31.5t-25 -28.5q-7 -10 -19 -31t-25.5 -42t-28 -37.5t-26.5 -17.5 q3 -14 8 -37.5t9 -49.5t7 -49.5t3 -36.5q0 -23 8 -43t8 -43q0 -17 -4.5 -34t-4.5 -34q0 -15 4.5 -20t18.5 -9q16 -5 22.5 -17t11 -24.5t11 -21.5t23.5 -9h5l12 1q12 -16 14.5 -36t14.5 -36q7 1 9 6l4 10t6.5 9t16.5 4q11 0 18 -6t13 -13.5t12.5 -13.5t16.5 -6q17 0 37.5 6.5 t42 15t42.5 17.5t38 14q41 12 77 35t58 61q11 20 26.5 37t24.5 38q10 0 20 1t21 1h9.5t13.5 -1t12.5 -3t5.5 -5q0 -9 -6.5 -14.5t-14 -10t-13.5 -10t-6 -15.5l11 1q12 0 32 -6t39.5 -16.5t34 -23.5t14.5 -27zM963 150q0 6 -4.5 10.5t-10.5 4.5q-7 0 -12 -9t-5 -14 q0 -6 7 -5.5t9 0.5q5 0 10.5 2.5t5.5 10.5z" />
<glyph unicode="d" horiz-adv-x="1235" d="M1222 43q0 -13 -6.5 -26t-21.5 -13q-11 0 -20 2.5t-20 2.5q-16 0 -16.5 -6t-2.5 -13.5t-14.5 -13.5t-52.5 -6q-23 0 -45.5 4t-45.5 4q-17 0 -37 -5q-8 10 -17.5 15t-18 10.5t-14.5 13.5t-6 24q0 11 -14 11q-5 0 -9.5 -1t-9.5 -1t-8.5 2.5t-3.5 7.5q0 2 1 3 q-21 -1 -32 -14t-24 -27q-9 -9 -19 -13.5t-20.5 -8t-22 -8.5t-22.5 -15q-9 -9 -30 -13.5t-44.5 -7t-46 -3t-35.5 -0.5q-30 0 -48.5 5t-33 12.5t-30.5 16t-41 16.5q-27 8 -65 30t-72.5 51t-58.5 62.5t-24 64.5q0 14 -6.5 28.5t-16 28t-19.5 27t-16 25.5q-19 38 -24.5 80 t-5.5 84q0 39 6 74.5t15 70t18.5 68.5t17.5 71q5 26 14 39.5t20.5 23.5t25 19t27.5 26q6 7 7.5 12.5t3 9t6 5t17.5 1.5q8 0 12.5 5t8.5 12t7.5 14.5t9.5 11.5t15 6t19 3t19.5 2t17.5 4q21 9 34.5 16t26 12.5t28.5 8.5t42 3q34 0 67.5 -8.5t66.5 -18.5t66 -18.5t68 -8.5 q28 0 44.5 12t25 31t11 42t2.5 45q0 39 -5 77.5t-7 76.5l-9 -4q-10 0 -18 5.5t-15 12t-15 12t-18 5.5q-11 0 -14 -5.5t-10 -10.5q-11 -1 -22.5 -1.5t-22.5 -0.5h-44q-14 0 -31.5 8.5t-33.5 22t-26.5 29t-10.5 30.5q0 13 8.5 27.5t21 26.5t27.5 19.5t29 7.5q13 0 24 -6.5 t24 -6.5q22 0 42.5 7t43.5 7t43.5 -7.5t43.5 -7.5q17 0 34.5 1t34.5 1q18 0 36.5 -3t34.5 -12v-6q0 -14 3.5 -27.5t8 -27t8 -26.5t3.5 -27q0 -18 -8.5 -34.5t-8.5 -35.5q0 -35 8 -69.5t8 -69.5q0 -88 -1 -175.5t-1 -176.5q0 -90 -6 -178.5t-6 -178.5q0 -33 3 -74.5t16 -78 t38.5 -61.5t70.5 -25q9 0 17.5 1.5t17.5 1.5q13 0 23 -7t17 -18t10.5 -24t3.5 -24zM859 539q0 37 -6.5 79t-23 78.5t-45 61.5t-71.5 27q-9 1 -21.5 8t-25.5 15t-25.5 14.5t-22.5 6.5q-9 0 -17 -3.5t-16 -8t-16 -8t-18 -3.5q-17 0 -32.5 2t-32.5 2q-50 0 -90.5 -30 t-69.5 -74.5t-45 -96t-16 -94.5q0 -18 2.5 -36t2.5 -36q0 -12 -6.5 -19.5t-15 -15t-15 -16t-6.5 -20.5h8q26 0 40.5 -9.5t22 -25t12 -35.5t10.5 -40.5t17.5 -39.5t33.5 -34q16 -11 35.5 -24t41 -24t43 -18.5t41.5 -7.5q32 0 63 9.5t63 9.5q12 0 26 -3q23 36 53.5 68.5 t74.5 45.5l-1 22q0 33 7.5 64.5t16.5 64.5t16.5 68t7.5 76z" />
<glyph unicode="e" horiz-adv-x="1114" d="M1026 209q0 -27 -8.5 -46t-22 -34t-31 -28t-35.5 -28q-14 -12 -25 -18t-21.5 -10t-22 -8t-26.5 -11q-20 -10 -33.5 -18.5t-27 -15.5t-29.5 -11.5t-40 -7.5q-40 -5 -80.5 -12t-80.5 -7q-8 0 -16.5 3.5t-19.5 7t-24.5 7t-32.5 3.5q-20 0 -32 6t-21.5 14t-19.5 17.5 t-26 16.5q-60 27 -102 65t-72 85t-50 102t-34 115q-11 42 -11 84q0 55 26 102q-10 28 -10 54q0 19 11 56.5t28.5 75.5t38 68.5t38.5 37.5q14 5 19.5 8.5t5.5 19.5q0 12 9.5 20t23 13t27 9t22.5 8q37 18 70.5 30.5t67 21t69.5 12.5t77 4q22 0 43 -6t40.5 -15.5t38.5 -21 t37 -22.5h-1q15 -2 28.5 -8.5t28.5 -8.5q14 -17 36.5 -32.5t44 -32.5t37 -36.5t15.5 -44.5q0 -4 -0.5 -8t-1.5 -9l4 5q4 -3 7.5 -10t6.5 -15.5t5 -17t3 -13.5q8 -13 21.5 -21t21.5 -22q-10 -10 -10 -26q0 -17 7 -33.5t7 -33.5q0 -20 -2 -38.5t-2 -38.5q0 -15 -11.5 -23 t-25 -14t-24.5 -12t-11 -17q0 -8 -9.5 -7.5t-15.5 0.5q-44 0 -87.5 11t-86.5 11q-47 0 -93 -6.5t-93 -6.5q-35 0 -69.5 2t-69.5 2q-9 0 -34 -3.5t-52.5 -9t-52.5 -13t-35 -14.5q-1 -5 -1 -14q0 -47 27.5 -97t72.5 -91t101 -68t113 -27q33 0 65.5 -2.5t63.5 -14.5 q27 13 49.5 30t43.5 36t41 39t41 40q4 4 19.5 7.5t33.5 6t34.5 4t22.5 1.5q23 0 43 -7q6 -23 6 -45zM876 615q0 15 -5 29t-8 29q-5 28 -5 54.5t-8 53.5h-1q0 -6 -4 -11.5t-11 -5.5q-12 0 -23 6t-19 15q-38 17 -68.5 32t-61 26.5t-65 18t-79.5 6.5q-4 0 -7.5 -0.5t-6.5 -3.5 l5 -11l-8 -2q-27 -5 -44.5 -9.5t-31.5 -12.5t-27.5 -19.5t-34.5 -29.5q-10 -9 -21.5 -13.5t-23 -8t-22 -7.5t-17.5 -13q-7 -25 -20.5 -48.5t-13.5 -49.5q0 -15 12.5 -26.5t32 -19.5t43 -14t46.5 -9t42.5 -4.5t30.5 -1.5q38 0 75 7.5t75 7.5q39 0 78 -3.5t78 -3.5q10 0 30 1 t39.5 5.5t34 13t14.5 22.5z" />
<glyph unicode="f" horiz-adv-x="969" d="M1139 1112l-5 -1q-11 0 -19 6.5t-18 8.5l-1 -4q0 -8 5 -15t11 -13t11 -12.5t5 -12.5q0 -9 -11.5 -10t-17.5 -3q-12 -3 -19 -14.5t-16.5 -25t-25 -24t-43.5 -10.5q-35 0 -70 16q-40 19 -58 46.5t-24 57.5t-7 59.5t-7 53.5t-23 38.5t-56 14.5q-36 0 -76 -8.5t-73.5 -28 t-55.5 -50t-22 -73.5q0 -47 4 -72.5t17 -37t38 -13t67 -1.5q8 0 22.5 -11.5t29 -27t25 -31.5t10.5 -26q0 -23 -19.5 -35.5t-46.5 -18.5t-55 -7t-44 -1q-17 0 -27.5 -7t-15.5 -18t-6.5 -25t-1.5 -28q0 -67 7.5 -133.5t7.5 -134.5q0 -39 -10.5 -64t-10.5 -41q0 -11 4.5 -22 t4.5 -22q0 -22 -6.5 -42.5t-6.5 -42.5q0 -18 6 -30.5t14 -24t15 -22.5t10 -26q27 4 53.5 11t54.5 7q18 0 49.5 -2t62 -9.5t53 -22t22.5 -39.5q0 -21 -5.5 -40t-16.5 -35t-27 -26.5t-37 -13.5q-27 -4 -53 -15t-53 -11q-17 0 -32.5 6t-32 12.5t-33.5 12.5t-36 6 q-45 0 -88.5 -0.5t-88.5 -4.5q-25 -2 -49 -8.5t-48.5 -13t-49.5 -11.5t-50 -5q-11 0 -26 4t-30.5 11t-29 14.5t-22.5 15.5l-1 46q0 33 14 50.5t36.5 26t51.5 10.5t59.5 3t59.5 3.5t51.5 12.5t36.5 30.5t14 56.5q0 15 -2.5 30t-6.5 30h2q6 9 9.5 26.5t4.5 37.5t1 38.5v29.5 q0 28 -1 60.5t-9 58.5q-2 7 -4.5 13.5t-2.5 14.5q0 23 8 45.5t8 45.5q0 9 -1.5 13.5t-4 8t-4.5 7t-3 9.5q7 11 11.5 23.5t4.5 25.5q0 12 -5 20.5t-11 16t-11.5 15.5t-5.5 18q-14 0 -36 0.5t-48 2.5t-52 7t-47 13.5t-34.5 22t-13.5 33.5q0 14 11.5 26.5t28 21.5t35 14t31.5 5 q14 0 28.5 -1t28.5 -1q15 0 36.5 2t33.5 11q3 3 7 15.5t7 28t5 30t2 19.5q0 23 -3.5 44t-3.5 44q0 33 8 61t32 52q28 28 53.5 54.5t53 47.5t60 36t75.5 21q30 4 60.5 9t61.5 5q17 0 45.5 -4.5t61 -13t65.5 -20.5t60 -27.5t44 -34t17 -39.5q31 -1 45.5 -21t20.5 -48t8 -58.5 t9 -52.5z" />
<glyph unicode="g" horiz-adv-x="1194" d="M990 -136q0 29 -15 45t-37.5 25t-48 13.5t-46.5 10.5l-1 1q-55 16 -110 28.5t-112 12.5q-2 0 -7 1.5t-22 12.5q-8 0 -14 -4t-11.5 -9t-11.5 -9t-13 -4q-11 0 -21 4.5t-21 4.5q-22 0 -43 -6.5t-41.5 -14t-41.5 -14t-43 -6.5q-13 0 -30.5 -12t-33.5 -29t-27 -35.5 t-11 -31.5q0 -31 8.5 -57t25.5 -45t41.5 -30t57.5 -11q11 0 20.5 -1.5t20.5 -9.5q35 -27 77.5 -31.5t84.5 -4.5q26 0 49.5 11t48.5 17q25 5 50.5 4.5t49.5 10.5q17 8 27.5 15.5t30.5 7.5q17 0 32.5 -3t32.5 -3t31.5 7.5t24.5 20t15.5 28t5.5 31.5l-1 10q19 0 24 17t5 32z M1150 -169q0 -32 -21.5 -67.5t-51 -65.5t-58.5 -49.5t-44 -19.5q-26 0 -50.5 -7.5t-47.5 -18.5q-22 -11 -65.5 -22t-92.5 -19.5t-94 -14t-70 -5.5q-29 0 -61.5 2t-65.5 6.5t-64.5 12t-58.5 18.5q-14 6 -22.5 12t-16.5 11t-18 8t-28 3q-21 0 -34 7.5t-21.5 19.5t-16 26.5 t-17.5 28.5q-22 29 -33 55.5t-11 63.5q0 51 21 98.5t55 85.5q0 30 -7.5 59t-16 58t-16 58t-7.5 59q0 20 5.5 32.5t11.5 21t11.5 16t5.5 17.5q0 3 14.5 17t32 32t32 38t14.5 35q0 13 -10.5 24.5t-22.5 23t-22.5 24t-10.5 27.5q0 22 3.5 44.5t8 44t8 43.5t3.5 45q0 5 -2 8.5 t-2 8.5q0 11 5.5 19.5t12.5 15t12.5 12.5t5.5 12q0 8 -6 15.5t-6 21.5v4v5q16 11 26.5 26t24.5 27q20 17 47.5 33.5t50.5 28.5q8 -1 11 -8t11 -7q6 0 19 6.5t30.5 15t37 15t38.5 6.5q16 0 32 -2.5t32 -4.5q32 -4 57 -5t46.5 -7t40 -21t38.5 -46q10 9 23 16t25 14.5t22 17 t15 23.5q10 -5 20 -5q8 0 17 6t21 12.5t28 12.5t38 6q34 0 66.5 -7t66.5 -10q2 -23 9 -43.5t15 -41.5t14.5 -42t6.5 -43q0 -15 -15.5 -34t-38 -35.5t-48 -27.5t-45.5 -11q-3 0 -6.5 2t-3.5 6q0 10 6.5 17t6.5 17q-13 7 -15.5 8t-3.5 1q-17 0 -27 -8.5t-15 -23t-7 -32 t-2 -35.5q0 -20 1 -37.5t1 -29.5q0 -25 -3 -44.5t-22 -37.5q-18 -17 -28 -37.5t-20 -42.5t-22.5 -44t-35.5 -40q-12 -12 -19.5 -18t-11 -9t-5 -3.5t-2.5 -0.5q-27 0 -52 -7.5t-50 -16t-50 -16t-52 -7.5q-41 0 -80.5 9.5t-81.5 9.5q-20 0 -45 -8t-46.5 -22.5t-36.5 -34 t-15 -42.5q0 -14 6 -29t16 -27t23.5 -19.5t28.5 -7.5q17 0 31.5 8t31.5 8q12 0 19.5 -6.5t16.5 -7.5q0 6 4.5 11t11.5 5q6 0 12 -7t14 -9q5 8 14 11.5t18 3.5q12 0 22.5 -4t20.5 -9.5t19 -9.5t18 -4q8 0 14 4.5t13 10.5t16 10.5t23 4.5q11 0 20.5 -1.5t20.5 -1.5 q15 0 28.5 7.5t28.5 7.5q8 0 15.5 -4t18.5 -9t26.5 -9t38.5 -4q16 0 32 -5t31 -12t30.5 -14t30.5 -11q18 -5 27 -10t14.5 -11t11.5 -14t19 -18q14 -12 28 -18.5t26 -13.5t20.5 -18t13.5 -33q5 -23 11 -46t6 -47zM891 834q0 16 -17 26t-31 10q-8 0 -15 -3.5t-9 -11.5 q8 -2 14 -7t11.5 -10.5t12 -9.5t15.5 -4t18 3zM791 624q0 22 -7.5 50t-21.5 53.5t-33 45.5t-41 27l-116 41q-9 0 -14 -2t-10 -4.5t-10 -4.5t-14 -2q-13 0 -24 5t-23 5q-11 0 -18 -7l-14 -14t-12.5 -10t-11 -5t-11 -4.5t-11.5 -6.5q-8 -5 -19 -29t-21 -52t-17 -54t-7 -35 q0 -4 6 -17.5t15.5 -32.5t21 -40t22 -40t19 -33.5t12.5 -18.5q13 -17 28.5 -22.5t32.5 -5.5q14 0 29.5 2t30.5 2q12 0 23 -2.5t23 -2.5q33 0 67 22t62 54t46 69.5t18 68.5z" />
<glyph unicode="h" horiz-adv-x="1263" d="M1229 48q0 -17 -5.5 -32.5t-14.5 -29.5q-23 -2 -44.5 -3t-44.5 -1q-22 0 -44 0.5t-44 0.5q-31 0 -60.5 -6t-60.5 -6q-41 0 -44 43q-14 0 -25 -8.5t-22 -18t-24 -18t-30 -8.5t-34.5 10t-17.5 30q0 7 3.5 13t8 10.5t8.5 8t4 6.5q0 5 -4 9t-9.5 8t-9.5 8.5t-4 11.5 q0 16 12 23.5t31 10.5t41 3.5t43 1.5t37 5.5t22 16.5q10 18 16 43t9.5 52t5 53.5t1.5 47.5q0 44 -3.5 87t-12.5 86q-4 20 -10.5 39t-6.5 39q0 13 4 23t8.5 18t8.5 15.5t4 15.5q0 17 -10 29.5t-15 27.5q-5 14 -6.5 28.5t-7.5 28.5q-5 10 -13 18.5l-16 17t-16 16.5t-12 19 q-35 3 -67 3q-44 0 -81.5 -5.5t-71 -19.5t-63 -37t-57.5 -58q-10 -12 -24 -27t-28 -30.5t-25.5 -31.5t-14.5 -31q-10 -40 -15.5 -90t-5.5 -92q0 -14 3.5 -28t8 -27.5t8 -27t3.5 -28.5q0 -7 -4 -25.5t-10 -37.5t-13 -33.5t-14 -14.5q2 -7 14 -18.5t27.5 -22.5t30 -19t21.5 -8 q9 0 17.5 1.5t16.5 1.5q19 0 41.5 -10.5t38 -23t18.5 -23t-18 -10.5q-5 0 -10.5 -0.5t-10.5 -0.5q-10 0 -14 5.5t-7 12t-6 12t-11 5.5q-5 0 -6.5 -6t-1.5 -10q0 -9 8 -18.5t17.5 -19.5t17.5 -20.5t8 -21.5q0 -5 -4 -7t-8 -2q-10 0 -19.5 3t-19.5 3q-9 0 -17 -7.5t-21 -16.5 t-34 -16.5t-56 -7.5q-15 0 -20 11t-9 24.5t-9 24.5t-20 11q-8 0 -13 -6t-7 -12h1q3 -3 6.5 -9.5t6.5 -14.5t5.5 -15.5t3.5 -11.5l-18 1q-14 1 -27 -2t-25.5 -6.5t-25.5 -6.5t-26 -2q-13 0 -23.5 3.5t-21.5 8.5q-17 8 -35 9t-33 4t-24.5 14t-9.5 38q0 16 6 33t17 30.5t26 22 t32 8.5q12 0 23 -5.5t23 -5.5q10 0 16.5 6t12 13.5t12 14t16.5 8.5q1 53 9 104.5t8 104.5q0 52 -9.5 102.5t-9.5 102.5q0 32 8.5 62t8.5 62q0 17 -7.5 32.5t-7.5 32.5q0 13 7 20t9 18h-3q-13 0 -13 14t9 14q3 0 8 -3q0 8 -4.5 16t-10 16t-10.5 16.5t-5 17.5q11 21 14.5 37 t3.5 32q0 14 -1.5 28.5t-1.5 34.5q0 22 9 42t9 42q0 13 -6 18t-15 5q-5 0 -13 -2q0 13 -2 35.5t-8 43.5t-17.5 36.5t-30.5 15.5q-12 0 -23.5 -1.5t-23.5 -1.5q-19 0 -36.5 10t-30.5 26t-21 35t-8 37q0 20 12 25t27 5q8 0 15 -0.5t14 -0.5q11 0 23 2.5t20 10.5q31 2 61 5 t61 3q17 0 30 -8t25.5 -18.5t25.5 -19.5t29 -12q0 -22 -3.5 -43t-3.5 -43q0 -21 8.5 -39.5t8.5 -38.5q0 -6 -4 -6.5t-8.5 -1.5t-8 -4t-3.5 -14q0 -9 3.5 -17t7.5 -15.5t7.5 -15.5t3.5 -17q0 -16 -5.5 -30t-5.5 -30q0 -13 3 -41t10 -56.5t18 -50t27 -21.5q21 0 40 10 t36.5 24.5t33.5 31t30 29.5q9 8 35 16t56.5 14.5t59 10.5t41.5 4q33 0 47.5 -4t24.5 -11.5t20 -17.5t34 -22q10 -5 19.5 -6.5t18 -3t17 -6t16.5 -14.5q13 -17 32.5 -36.5t36.5 -41t29.5 -44.5t12.5 -46q0 -15 -5.5 -30t-5.5 -30q0 -11 5 -19.5t5 -19.5q0 -12 -1 -30 t-4 -37.5t-7.5 -37t-11.5 -26.5q15 -25 20 -53t5 -56q0 -35 -3.5 -69.5t-3.5 -69.5q0 -47 14 -72.5t34.5 -39t45 -19.5t45 -14.5t34.5 -24t14 -47.5z" />
<glyph unicode="i" horiz-adv-x="1164" d="M678 1255q0 -29 -9.5 -59.5t-27.5 -56t-43.5 -42t-56.5 -16.5q-21 0 -52 6.5t-59.5 19t-49 32.5t-20.5 47q0 24 5.5 49.5t6.5 51.5q10 5 20 18t19.5 26.5t19 24.5t19.5 12l-5 -2q14 6 29.5 10t31.5 4q21 0 50.5 -10.5t56.5 -27.5t46 -40t19 -47zM1162 38q0 -17 -6.5 -32 t-18 -26.5t-26.5 -18.5t-33 -7q-7 0 -9 2l-7 7q-14 15 -34 17.5t-41.5 5t-41 11t-31.5 34.5q-8 17 -17 22t-28 5q-44 0 -84 -14t-79 -31.5t-79.5 -31.5t-83.5 -14q-24 0 -47.5 4.5t-45.5 14.5q-5 -5 -11.5 -7t-14.5 -2q-7 0 -13.5 1t-11.5 1q-1 0 -11 -3.5t-12 -4.5l6 -10 q-6 -9 -27 -17.5t-45.5 -14.5t-47.5 -10t-35 -4q-32 0 -52.5 10.5t-40.5 36.5q-7 10 -17.5 20t-20 20.5t-16 22.5t-6.5 25q0 15 16 25t38 16.5t44 9t34 2.5q24 0 48 -6.5t48 -6.5q22 0 42 6t42 6q19 0 37.5 -2.5t37.5 -2.5q24 0 46.5 8.5t42.5 22.5q8 49 11.5 98t3.5 99 q0 49 -8 98t-8 97q0 4 2 4.5t4.5 1t4.5 2t2 7.5q0 21 -6 41t-6 41q0 26 7 51t7 51q0 18 -8 36t-21 32t-30 22.5t-36 8.5q-21 0 -41.5 -5t-42.5 -11.5t-44.5 -11.5t-47.5 -5q-29 0 -57 4t-57 9q-14 2 -31.5 4t-33.5 7t-27 15t-11 29q0 35 12.5 53.5t31 27.5t41.5 11t44 4 q38 3 75.5 5.5t75.5 2.5q47 0 92.5 -5.5t92.5 -5.5q33 0 63 -10t52.5 -30.5t35.5 -51.5t13 -72q0 -27 -11.5 -52.5t-29.5 -45.5q7 -13 14 -17.5t13 -8t10 -9t4 -20.5q0 -8 2.5 -18.5t13.5 -11.5q0 -54 -1 -106.5t-1 -105.5q0 -45 0.5 -90t7.5 -90q4 -28 16 -43t43 -15 q45 0 89 9.5t89 9.5q26 0 49.5 -13t45 -28t41.5 -28t38 -13q8 0 13 -5.5t7.5 -13t3 -15.5t0.5 -14z" />
<glyph unicode="j" horiz-adv-x="851" d="M593 1067h-2h3h-1zM676 1155q0 -35 -22.5 -61.5t-57.5 -26.5h-3h-2q-5 0 -15 2v2q-2 6 -2 10q0 13 8.5 23t8.5 26v4l-1 6q-21 -5 -32.5 -19.5t-18 -33t-10.5 -39t-10 -36.5q-22 1 -54 16t-61.5 37.5t-50.5 49.5t-21 53q0 17 -14 33.5t-26 35t-13 40.5t26 49 q22 10 44.5 22.5t45 23.5t46 18.5t49.5 7.5q44 -6 78 -16q29 -8 53.5 -22t24.5 -34q-2 -15 5.5 -28t24.5 -15v-128zM704 -100q0 -53 -15.5 -99.5t-45.5 -81t-73 -55t-98 -20.5q-8 0 -11 -5t-4.5 -12t-3 -14.5t-5.5 -11.5q-6 -8 -14.5 -9.5t-18.5 -3t-20.5 -5.5t-22.5 -16 q-13 -14 -21.5 -23.5t-17.5 -15.5t-21.5 -8.5t-33.5 -2.5q-43 0 -66.5 5t-40 16t-32.5 29t-44 45q-7 7 -17.5 11t-20 8.5t-16 11.5t-6.5 19q0 7 -9 29.5t-20 51.5t-20 59.5t-9 54.5q0 23 6.5 52.5t16.5 49.5q4 9 11.5 14t16 9.5t17 8.5t15.5 11q10 10 18 13t22 3 q50 0 79 -12t48.5 -28.5t35.5 -34t42 -29.5q-3 -8 -3 -20q0 -8 0.5 -15t1.5 -12l1 -10q-3 -18 -10.5 -35t-14.5 -34.5t-12.5 -35t-5.5 -36.5q0 -26 15 -44l13 -1h8q20 0 41.5 8t39.5 22t29.5 32.5t11.5 40.5q0 8 -1 12l12 1q14 0 27 -4t27 -4q9 0 14 5t8 12t4.5 15t2.5 15 q4 28 10 54t12 51.5t10 52.5t4 56q0 36 -8.5 71t-8.5 71q0 14 3.5 28t3.5 28q0 29 -10.5 55.5t-10.5 55.5t6 57t6 57q0 46 -7 91.5t-7 92.5q0 17 1 33t1 33q0 32 -12 51.5t-31.5 30t-44 14t-50.5 3.5q-23 0 -44.5 -1t-40.5 -1t-46 2.5t-52 11t-42.5 24t-17.5 41.5 q0 22 11.5 35.5t28.5 20.5t36 9t35 2q47 0 92 2t92 2q8 0 17.5 -1t11.5 -4v14q15 6 30.5 7t31.5 1q11 0 28.5 -1.5t34.5 -6t29.5 -13t12.5 -23.5q0 -6 -3 -11.5t-7 -9.5l71 -43q1 -14 1 -27.5v-27.5q0 -48 -2 -96t-2 -96q0 -20 0.5 -40t2.5 -40t8 -40t6 -40q0 -12 -4.5 -22 t-10 -19.5t-10 -18.5t-4.5 -18q0 -11 10 -11q2 -42 3 -83t1 -83q0 -35 -2.5 -64.5t-11.5 -63.5q0 -2 -0.5 -4t-0.5 -4q0 -22 4.5 -43.5t10.5 -42.5t10.5 -42t4.5 -43z" />
<glyph unicode="k" horiz-adv-x="1271" d="M1227 38q0 -14 -5 -20.5t-11.5 -11.5t-11.5 -10t-5 -15q0 -6 1 -9q-35 -9 -77.5 -12t-78.5 -3q-5 0 -12.5 2.5t-14.5 6t-11.5 9t-4.5 11.5q-12 -4 -26.5 -6.5t-28 -6.5t-25.5 -11t-20 -19q-13 4 -34.5 7t-45.5 7t-48 9.5t-43.5 14t-32 20.5t-12.5 30q0 5 1 17.5t4 25.5 t7.5 23t10.5 10q10 0 19.5 -4t20.5 -4l10 1l1 8q0 8 -4.5 12.5t-11.5 6t-14 1.5h-13q13 13 17 31t4 35q0 18 -4.5 41.5t-14.5 45.5t-24.5 39t-34.5 22q-6 13 -14 27.5t-18.5 26.5t-24 20t-29.5 8q-18 0 -46 -19t-54.5 -43.5t-46 -47.5t-19.5 -31q0 -11 3 -21t3 -21 q0 -17 -7 -31t-18 -25q3 -18 15 -27t28.5 -13.5t33.5 -6t31 -4.5q6 -6 17.5 -15t22 -19.5t18.5 -21.5t8 -20q0 -10 -7.5 -12t-16.5 -3t-16.5 -4t-7.5 -13q0 -7 2 -12q-48 -2 -93.5 -9.5t-91.5 -18.5q-19 -5 -38 -6t-38.5 -1t-39.5 -1t-39 -5q-14 -3 -28 -3q-23 0 -43 9 t-35 25t-23.5 36t-8.5 43q0 22 12.5 41t38.5 19q8 0 13 -7.5t13 -7.5q4 0 7 4.5t6.5 10.5t9.5 11t15 7q28 4 46.5 19t28.5 36.5t14 47t4 50.5q0 20 -4.5 38.5t-4.5 37.5q0 26 9.5 53.5t9.5 61.5q0 47 -5.5 92.5t-5.5 92.5q0 35 4 71t4 71q0 13 -3.5 24.5t-7.5 22t-7.5 20 t-3.5 19.5q0 20 7 40t7 40q0 23 -7.5 44t-7.5 44q0 17 3.5 34.5t3.5 35.5q0 36 -15.5 54t-38.5 26.5t-50.5 10.5t-50.5 6.5t-38.5 15.5t-15.5 36q0 29 13 47.5t33 28.5t44 13.5t47 3.5q65 -14 102 -24t55.5 -17t23 -11t6.5 -7q6 -18 10.5 -54t7.5 -75.5t4.5 -76t1.5 -54.5 q0 -27 -8 -51.5t-8 -50.5q0 -28 7.5 -54t9.5 -54q1 -18 1.5 -35.5t0.5 -35.5q0 -26 -0.5 -53t-0.5 -54q0 -38 2 -75t8 -74q5 -2 9 -2h9q20 0 33 10.5t24 24.5t23 28.5t30 22.5q24 10 40.5 29.5t31.5 40.5t31.5 39.5t40.5 28.5q25 10 25 36q0 15 -4 29.5t-9.5 28.5t-9.5 28.5 t-4 29.5l1 11l8 -1h3q4 0 8 0.5t4 4.5q-5 8 -5 18q0 14 6.5 18t18.5 4q22 0 42.5 -8t42.5 -8q16 0 30.5 4.5t29.5 10t29.5 10t30.5 4.5q27 0 53 -7t53 -7q28 0 55 8t56 8q5 0 14 -3t17.5 -8t15 -11t6.5 -12q-2 -7 -8 -9.5t-6 -6.5q0 -5 5 -11.5t11.5 -14t11.5 -16t5 -17.5 q0 -13 -24 -25t-55.5 -21.5t-61.5 -15t-42 -5.5q-21 0 -31.5 7.5t-20.5 7.5q-16 0 -41 -12.5t-53.5 -32.5t-57.5 -45.5t-52.5 -50.5t-39 -48t-15.5 -38q-1 -16 -5 -31t-4 -31q0 -14 9 -23t21 -16.5t24.5 -16.5t18.5 -22q9 -20 27 -45.5t39.5 -54t43.5 -57.5t40.5 -56.5 t30 -52t11.5 -42.5v-7q50 11 98 11q33 0 65.5 -3.5t64.5 -7.5v-9v-5q0 -20 7 -32.5t16 -22t16 -18t7 -18.5z" />
<glyph unicode="l" horiz-adv-x="1107" d="M1101 52q0 -35 -23.5 -55.5t-56.5 -31t-68.5 -13.5t-60.5 -3q-33 0 -54.5 6t-37.5 12.5t-28 12.5t-25 6q-17 0 -33.5 -6t-33.5 -6q-12 0 -19.5 4t-12.5 9.5t-9.5 9.5t-10.5 4q-7 0 -11 -5.5t-9 -12.5t-14.5 -12.5t-27.5 -5.5q-21 0 -41 4.5t-41 4.5t-41.5 -7.5 t-38.5 -7.5q-8 0 -12 5.5t-9 5.5q-17 0 -35.5 -8t-37.5 -8q-10 0 -19.5 2.5t-19.5 2.5q-17 0 -34 -8t-42 -8q-9 0 -39.5 2.5t-62.5 7.5t-57.5 12.5t-25.5 16.5q0 26 9.5 52t9.5 50v2q-13 0 -15 14q2 4 6.5 6.5t9.5 4t9 4.5t4 9v4q40 -4 78.5 -5t80.5 -1q39 0 86.5 2.5 t88 14.5t68 36.5t27.5 68.5v7v16q-5 110 -10.5 216.5t-5.5 216.5q0 29 -4.5 56.5t-4.5 55.5q0 35 12.5 70t39.5 59q-1 6 -5 8.5t-10 3.5t-11.5 2t-9.5 3q-6 3 -8 14t-3.5 24t-3 25.5t-6.5 19.5q3 29 10 57t7 57q0 21 -5.5 33t-12.5 20t-12.5 14.5t-5.5 16.5q0 8 5 15l-8 1 q-10 0 -15 -5t-9.5 -11t-9.5 -11t-14 -5q-7 0 -16 3q-17 -5 -32 -5q-35 0 -69.5 9.5t-69.5 9.5q-19 0 -37 -1.5t-36 -1.5q-26 0 -52 6t-46 26v12q0 53 35.5 80t86.5 27q35 0 69 -9t69 -9q19 0 40 4t43 9t44.5 9t44.5 4q34 0 64 -14.5t60 -27.5l-1 -8q0 -9 4.5 -16.5 t10.5 -15t10.5 -15t4.5 -16.5t-2.5 -17.5t-2.5 -17.5q0 -22 8.5 -42t8.5 -43q0 -24 -5.5 -47t-5.5 -47q0 -29 7 -58t7 -58q0 -24 -7.5 -47t-7.5 -46q0 -17 4.5 -33.5t10.5 -32.5t10.5 -32.5t4.5 -34.5v-20q0 -16 -2.5 -30.5t-13.5 -27.5q5 -19 10.5 -41t5.5 -42 q0 -10 -1.5 -21.5t-5 -23t-9.5 -21t-14 -15.5q13 -38 17 -77t6 -78q1 -12 4 -31t6 -37.5t5.5 -34t2.5 -21.5q0 -17 -6 -33t-6 -33q0 -13 6 -27.5t22 -14.5q12 0 20.5 5.5t18.5 12t23.5 12t36.5 5.5q26 0 49 -7t49 -7q19 0 38.5 3.5t38 8t37.5 8.5t39 4q40 0 67.5 -23 t27.5 -68zM527 1297q-4 4 -9.5 8t-12.5 4q-5 0 -8.5 -4.5t-3.5 -9.5l5 -12q4 -2 6 -2q8 0 13.5 5.5t9.5 10.5zM587 1019q0 8 -4.5 16.5t-14.5 8.5q-3 0 -6.5 -1t-5.5 -2v-43q8 -4 12 -4q10 0 14.5 8.5t4.5 16.5z" />
<glyph unicode="m" horiz-adv-x="1359" d="M1296 47q0 -7 -2.5 -21.5t-8 -29t-12.5 -25.5t-16 -11q-11 0 -22 4.5t-22 4.5q-35 0 -69 -6.5t-69 -6.5q-17 0 -32 4.5t-29.5 9.5t-29.5 10t-31 7q-24 2 -36.5 19t-12.5 40q0 27 14.5 45.5t32.5 39t32.5 49.5t14.5 78q0 98 -8.5 194.5t-8.5 194.5v30q0 21 -2 43t-10 39.5 t-23 28.5t-42 11q-23 -14 -44 -30.5t-37 -38.5q-7 -10 -15 -33t-15 -53t-13.5 -64t-11.5 -65t-8 -57t-3 -39q0 -38 5.5 -76.5t5.5 -76.5q0 -20 -3.5 -38.5t-3.5 -38.5q0 -8 1 -16t6 -16q11 -6 26.5 -15t29 -20.5t23 -24.5t9.5 -27q0 -29 -21 -47t-49 -18q-7 0 -13 1t-13 1 q-10 0 -19.5 -3.5t-19.5 -8t-20.5 -8t-22.5 -3.5q-31 0 -60 8t-60 8q-9 0 -16 7.5t-11.5 17.5t-6.5 21t-2 18q0 18 7.5 27.5t18.5 16.5t24.5 14.5t24.5 20.5t18.5 35.5t7.5 59.5q0 15 -4 29t-8.5 28t-8 28t-3.5 29q0 26 6 52t6 52q0 19 -7 36t-7 35q0 13 7.5 23t7.5 23 q0 4 -2 15t-4.5 25.5t-4.5 30.5t-2 30q0 18 4.5 36t4.5 36q0 11 -5.5 20.5t-14.5 17t-20 11.5t-21 4q-17 0 -33 -6.5t-30 -16.5t-27 -22t-25 -23q-3 -9 -5.5 -19t-7.5 -18q-4 -6 -12.5 -10l-17 -8t-15 -8.5t-6.5 -13.5q0 -8 5.5 -13t11.5 -7q10 -22 10 -41q0 -17 -3.5 -33 t-8 -31.5t-8 -32t-3.5 -32.5l1 -100q0 -14 3.5 -18.5t8 -7t9 -7.5t7.5 -21q3 -20 5.5 -40.5t2.5 -40.5q0 -21 -4 -41.5t-4 -41.5q0 -22 6.5 -32.5t16.5 -15t21 -6t21 -5.5t16.5 -14t6.5 -32q0 -20 -11 -32.5t-30 -17.5q-63 -17 -131 -27t-133 -10q-20 0 -34 1.5t-22.5 8 t-12.5 20.5t-4 40q0 23 18.5 41.5t40 35.5t40 34.5t18.5 38.5q0 9 -0.5 16.5t-0.5 13.5q0 9 2.5 18t10.5 20q0 22 -4.5 44t-9.5 43.5t-9.5 43t-4.5 44.5q0 47 8.5 92t8.5 92q0 26 -1.5 51t-3.5 51q-3 30 -7 48.5t-12.5 31.5t-24 22.5t-43.5 22.5q-16 8 -28.5 21t-12.5 32 q0 21 9.5 29.5t22 13t24.5 8.5t17 16q4 9 7.5 10.5t13.5 1.5q27 0 52 -8.5t48 -18t44.5 -18t41.5 -8.5q21 0 44.5 13.5t51.5 29.5t62.5 29.5t78.5 13.5q17 0 35 -8t35 -20t31.5 -26t24.5 -27q24 23 56 40t67 28t71 16t69 5q25 0 45 -13.5t35.5 -36t27 -50.5t21 -56 t16.5 -54.5t13 -44.5q2 -5 3 -10t1 -11q0 -14 -4 -27t-8.5 -25.5t-8.5 -25.5t-4 -27t5.5 -27t5.5 -27q0 -15 -6 -28.5t-6 -28.5q0 -20 7.5 -38t7.5 -38q0 -15 -4.5 -28.5t-10 -27.5t-10 -27.5t-4.5 -28.5q0 -5 1 -9.5t3 -9.5l39 -98q9 -21 30 -40t43 -37t39 -37.5t17 -42.5z " />
<glyph unicode="n" horiz-adv-x="1295" d="M1252 26q0 -14 -7 -23t-17.5 -14t-23 -6.5t-23.5 -1.5q-15 0 -30 2l-30 4q-20 -7 -47.5 -14.5t-49.5 -7.5q-6 0 -11.5 2t-10.5 2q-17 0 -34.5 -6.5t-34.5 -6.5q-29 0 -55.5 7.5t-55.5 9.5q-47 4 -72.5 36.5t-27.5 77.5q31 19 65.5 26t69.5 7q20 0 39.5 -1t39.5 -3 q-3 75 -13 150t-10 151q0 26 1.5 52t6.5 52t13 51.5t8 51.5q0 17 -5 31.5t-13 29.5q-7 12 -9 27t-5 30.5t-9 30.5t-19.5 27t-37.5 19t-63 7q-12 0 -35.5 -3.5t-48 -9t-46 -13t-29.5 -15.5q-5 -5 -12.5 -14t-16 -18.5t-16.5 -17t-14 -8.5q-15 -3 -22.5 -5t-12 -6t-7.5 -11.5 t-10 -21.5q-2 -4 -8 -15.5t-12 -11.5q-5 0 -7 4t-7 4q-2 0 -5.5 -2.5t-5.5 -4.5v-28q-7 -8 -12.5 -8.5t-9 -1.5t-5 -5t-1.5 -19q0 -11 -5 -20t-10.5 -18t-10.5 -18.5t-5 -21.5q0 -20 5.5 -38.5t5.5 -38.5q0 -13 -4 -22t-9.5 -16.5t-9.5 -14.5t-4 -17q0 -14 5.5 -25.5 t11.5 -23.5t11.5 -25t5.5 -28q0 -17 -4 -34.5t-4 -35.5q0 -21 6.5 -32.5t17 -17.5t24.5 -9t28.5 -8.5t29.5 -15t28 -28.5l6 1q17 0 25 -14t8 -29q0 -14 -6 -24.5t-6 -27.5q0 -12 -26 -20t-59 -12.5t-63.5 -6t-40.5 -1.5q-12 0 -36.5 0.5t-55 2t-63.5 4.5t-61 8.5t-47.5 14 t-24.5 20.5t-10 26.5t-5 28.5q0 15 7.5 27t18.5 22q15 14 33 16.5t35.5 3t34 3t29 15.5t20 41t7.5 79q0 13 -2 26.5t-5 26t-5 22.5t-2 15q0 6 3.5 13t8 14.5t8 16.5t3.5 20q0 17 -6.5 33t-6.5 33q0 14 5 27t5 27q0 11 -6 21t-6 22q0 11 4 22.5t4 23.5q0 26 -6 53.5t-11 53.5 q-6 31 -22.5 46.5t-37.5 23.5t-44 13t-42 15.5t-31.5 30t-12.5 57.5q0 26 15.5 40t37.5 20.5t46.5 7.5t42.5 1q29 0 57.5 -8.5t57.5 -10.5q13 -1 25 -8.5t22 -18t16 -23.5t7 -26q0 -6 4 -21.5t9.5 -31.5t12 -28.5t13.5 -12.5q6 5 8.5 11.5t4.5 12.5q1 6 13.5 16t28 21t30 21 t20.5 16q6 7 9.5 14.5t7 14t9 10.5t17.5 4h5q11 0 21 9.5t26 21.5t42 21.5t69 9.5q37 0 74 -1.5t70.5 -10.5t63 -28t51.5 -53q17 -27 28 -40t18 -25t9.5 -29t2.5 -51q0 -14 5 -26t11.5 -24.5t11.5 -26.5t5 -32q0 -35 -4 -69.5t-4 -69.5q0 -25 -9.5 -49t-9.5 -49q0 -12 6 -23 t6 -25q0 -17 -4 -34.5t-4 -34.5q0 -16 7.5 -28t7.5 -27q0 -8 -3.5 -13t-8 -10t-8 -10.5t-3.5 -13.5q0 -15 7.5 -30.5t19.5 -28t27 -20t30 -7.5q13 0 22.5 5.5t20.5 5.5q14 0 25.5 -11.5t20 -27.5t13 -33t4.5 -28zM1036 403q0 10 -6.5 19.5t-17.5 9.5t-15 -10.5t-4 -19.5 q0 -11 4 -21t16 -10q10 0 15.5 6.5t7.5 23.5v2zM1053 211q0 7 -5.5 11.5t-11.5 7.5q-2 -6 -7 -12t-10 -13t-9.5 -14t-4.5 -14q0 -8 5 -12t12 -7q1 6 6.5 12t10.5 13t9.5 13.5t4.5 14.5zM388 426q0 7 -2.5 17t-7 19.5t-11 16t-15.5 6.5q-11 0 -19 -6.5t-20 -6.5h-4 q-3 -11 -3 -21l1 -6l1 3q3 -11 12 -17t19.5 -10.5t21.5 -8.5t19 -11q8 9 8 25z" />
<glyph unicode="o" horiz-adv-x="1195" d="M1112 438q0 -14 -4.5 -26.5t-10 -21.5t-10 -15t-4.5 -7q0 -10 6.5 -21t6.5 -24q0 -6 -4.5 -8t-9.5 -2q-9 0 -15 2q1 -19 3.5 -37t2.5 -37q0 -29 -5.5 -37.5t-11.5 -10.5t-11.5 -4.5t-5.5 -18.5q0 -9 -12.5 -23t-30 -28t-36 -24t-29.5 -10q-3 0 -7 2q0 -8 1 -17t1 -17 q0 -13 -8 -17.5t-18 -8.5q-15 -7 -31 -20.5t-33 -27.5t-34.5 -24.5t-36.5 -10.5q-16 0 -29.5 8t-31.5 8q-16 0 -27 -4.5t-20.5 -10t-19.5 -10t-23 -4.5q-26 0 -52 13.5t-50 21.5q-14 5 -30 7.5t-31 5.5t-28.5 9.5t-23.5 18.5q-21 26 -49 43t-57 32t-56 31.5t-47 43.5 q-15 21 -34 45.5t-35.5 51.5t-27.5 55t-11 55q0 20 4 39t8.5 38.5t8.5 38.5t4 39v11q0 4 -3 9t-6.5 9.5t-7 8t-4.5 3.5q-2 0 -2 -1q1 9 5.5 27.5t10.5 38t12 36t11 21.5q6 5 11.5 10.5t5.5 14.5t-1 17.5t-1 17.5q0 12 3 14.5t8 2.5t10 1.5t10 10.5q9 18 17.5 33.5t18.5 28.5 t23 24t32 21q16 9 31.5 22t31.5 26t32.5 22t35.5 9q27 0 52.5 9.5t51.5 14.5q41 6 81.5 11.5t82.5 5.5q23 0 56 -7.5t67.5 -19.5t65 -27t48.5 -30v-3q0 -14 -5 -28.5t-5 -28.5v-4t2 -2q17 0 32.5 4.5t32.5 4.5q2 -17 15 -23t26 -11q12 -6 22.5 -21.5t19.5 -35t17.5 -38.5 t16.5 -31t14.5 -28.5t11 -34.5t6.5 -35.5t2 -32.5q0 -20 -7.5 -33.5t-16.5 -24t-16.5 -20t-7.5 -21.5q0 -7 3 -13t8 -11q2 1 8.5 2t6.5 6v1q0 8 -6.5 15t-6.5 17q0 2 2 6.5t5 4.5q6 0 12 -7.5t11.5 -16t8.5 -14.5t3 -4l-1 1q1 -5 1.5 -8.5t0.5 -7.5zM1012 430q0 16 -12 19.5 t-27 4.5t-29.5 3t-19.5 15v10q0 22 -5.5 51.5t-13.5 60t-17 60t-17 52.5t-13 37l-5 14q-8 -2 -13 -2q-17 0 -29.5 7t-28 15t-38 15t-59.5 7q-41 0 -81 5.5t-81 5.5q-56 0 -105 -25.5t-86 -67t-58 -93.5t-21 -105q0 -22 1 -51.5t5 -59t13 -55t25 -38.5v-28q4 -4 10.5 -4.5 t13 -0.5t11.5 -1.5t8 -8.5q13 -37 34 -56.5t45 -33l48 -27t44 -39.5q8 1 17 1.5t17 0.5q32 0 62.5 -4.5t61.5 -4.5q33 0 59.5 17t45.5 43q12 17 22 29t20.5 22.5t23 20t29.5 21.5q6 4 14.5 10t17 13.5t14.5 15t6 14.5q0 9 -2.5 18t-2.5 18q0 10 3 24t9.5 27t16 21.5 t23.5 8.5q11 0 22 -5t20 -12q2 10 2 15z" />
<glyph unicode="p" horiz-adv-x="1203" d="M1119 487q0 -43 -9 -84t-15 -83q-2 -14 -2.5 -25.5t-2.5 -22t-7 -21t-15 -21.5q-13 -14 -18 -29.5t-10 -32.5q-6 -17 -13.5 -25.5t-16 -14.5t-18 -11.5t-19.5 -16.5q-6 -7 -7.5 -14t-2.5 -13.5t-4.5 -12.5t-13.5 -10q-16 -7 -23 -15.5t-18 -19.5t-28.5 -21.5t-37 -18.5 t-39.5 -13t-35 -5q-19 0 -37.5 4t-37.5 4q-11 0 -16.5 -3.5t-9.5 -7.5t-8.5 -7.5t-13.5 -3.5q-17 0 -50 13.5t-69.5 30t-70.5 30t-52 13.5q-16 0 -25.5 -11.5t-15.5 -29t-8.5 -38t-3 -38.5t0 -30l0.5 -12q0 -10 -3.5 -13t-9.5 -3q-4 0 -8 0.5t-9 1.5q0 -12 4.5 -26t11 -29.5 t12.5 -30.5t9 -28q7 -32 14.5 -46t19.5 -19t30 -4.5t46 -2.5q13 -2 28 -5.5t27 -11t20 -18.5t8 -27q0 -33 -19.5 -47t-49.5 -14q-41 0 -81.5 6t-82.5 6q-44 0 -87.5 -5t-86.5 -5q-11 0 -30.5 4t-39 11.5t-34 18t-14.5 23.5q0 9 10.5 17.5t24 14.5t27.5 9.5t22 3.5 q18 0 33.5 5.5t30.5 11.5t30 11.5t32 5.5q9 38 11.5 76t2.5 76q0 27 -0.5 54t-0.5 54q0 53 7.5 105t7.5 106q0 33 -2.5 66t-4.5 66q-3 4 -7 26.5t-7.5 49.5t-5.5 51.5t-2 32.5q0 11 3.5 19.5t7.5 15t7.5 11.5t3.5 9q0 1 -3 7t-6.5 15t-6.5 20t-3 22q0 32 7.5 64t7.5 64 q0 43 -31 75q-15 15 -24 23t-18 11.5t-21 5t-33 4.5q-11 1 -30.5 6.5t-38.5 13.5t-33.5 19t-14.5 24q0 17 16 29.5t37.5 20t43.5 11t35 3.5q14 0 28 -2.5t24 -12.5q11 11 27 14.5t31 3.5q43 0 66 -13t36.5 -28.5t22 -28.5t21.5 -13q8 0 15.5 3t15.5 7q21 10 63 24.5t89 28 t90 22.5t65 9q11 0 31.5 -5.5t45.5 -14t52 -20t50 -23.5t40 -23.5t23 -20.5q11 -18 23.5 -31t33.5 -20q6 -8 7.5 -17t1.5 -19v-19q0 -20 7 -31t15 -18.5t15 -14t7 -18.5q0 -7 -4 -12.5t-4 -11.5q0 -15 7 -30.5t15 -34t15 -39.5t7 -46zM661 913q0 5 -5 10t-10 5 q-10 0 -12.5 -10.5t-2.5 -18.5q0 2 1 2q2 0 3 -1l-4 -2q7 0 18.5 2.5t11.5 12.5zM1001 456q0 30 -8 58.5t-20 55t-27 51.5t-30 49q-4 6 -5 13.5t-1 15t-1.5 15t-6.5 13.5q-8 9 -15 10.5t-13.5 2.5t-14 5t-14.5 18q-5 9 -21.5 20t-36 21t-38 16.5t-28.5 6.5q-20 0 -39.5 -8.5 t-39.5 -8.5q-14 0 -25.5 5t-22 10.5t-21.5 10.5t-23 5h-5q2 -10 2 -16q0 -9 -4 -14.5t-10.5 -9.5t-14 -7.5t-13.5 -7.5q-9 -11 -9.5 -22t-10.5 -11q-7 0 -11 2q0 -7 -4 -10t-9 -5t-10 -4.5t-6 -8.5q-13 -1 -24 -15.5t-19 -36.5t-14 -49t-10 -52.5t-6 -47t-2 -32.5 q0 -36 4.5 -71.5t4.5 -71.5q0 -27 -1.5 -54t-3.5 -55q25 -27 48 -54t48.5 -48.5t56.5 -36t72 -15.5q16 0 32 -4l32 -8t31.5 -7.5t31.5 -3.5q15 0 32 6.5t33.5 16.5t31.5 21.5t25 22.5q8 9 19.5 13t19.5 12q6 6 8 13t3.5 14t4.5 13.5t12 11.5q19 10 24 14.5t5 16.5v19 q0 10 5 14.5t11 9t11 12t5 25.5q0 13 -2 25.5t-2 25.5t4.5 24t10 21t10 19.5t4.5 20.5z" />
<glyph unicode="q" horiz-adv-x="1163" d="M1160 -366q0 -6 -4.5 -9t-10.5 -5t-12 -3t-10 -2q-35 -5 -63 -19.5t-60 -23.5q-12 8 -26 11t-28 3q-26 0 -51.5 -6t-51.5 -8q-5 5 -12.5 10t-15.5 5q-1 0 -8 -3t-17.5 -6.5t-23.5 -6.5t-26 -3q-14 0 -29 2t-27 8t-19.5 16.5t-7.5 28.5q0 40 17.5 53t43.5 15t56.5 1.5 t56.5 12t43.5 46.5t17.5 105q0 14 -2.5 46.5t-9 66t-18.5 59t-31 25.5q-15 0 -39 -7.5t-51 -17.5t-54 -19t-48 -12q-32 -5 -64.5 -7.5t-65.5 -2.5q-47 0 -82.5 5t-66 18t-58 36.5t-57.5 60.5q-9 11 -13.5 20t-7.5 22t-9.5 19.5t-14 10t-14.5 8t-13 13.5q-8 12 -10.5 25.5 t-5.5 27.5q-5 22 -11.5 26.5t-13.5 10.5t-11.5 21.5t-4.5 59.5q0 6 -4 9.5t-9.5 6.5t-9.5 6.5t-4 9.5q0 8 2.5 17t2.5 19q0 13 -1 25t-1 25q0 9 5.5 17.5t5.5 19.5q0 22 -3.5 43.5t-3.5 42.5q0 11 2 20.5t12 9.5q2 0 3 -0.5t3 -0.5q0 18 -14 29q5 20 14.5 38t19.5 35 q9 15 14.5 28t11.5 25t14.5 23.5t22.5 24.5q6 6 22 20t33.5 29.5t31.5 29t16 18.5q10 -3 21 -3q21 0 40.5 8.5t41 18.5t45.5 18.5t54 8.5q7 0 25 -3t41 -7.5t48 -10.5t47 -11.5t37.5 -11t20.5 -9.5l74 -65q12 1 17.5 5.5t8.5 11t4.5 15t4.5 17.5q3 10 12 18t18 15.5 t16.5 14.5t7.5 13q8 -11 22 -13.5t28 -2.5h21q25 0 34.5 -7t9.5 -34q0 -43 -9 -85.5t-9 -87.5q0 -40 10 -78t10 -78q0 -20 -7 -39.5t-24 -31.5q10 -39 13.5 -79.5t3.5 -82.5q0 -43 -2 -85.5t-2 -84.5q0 -39 2.5 -76t6 -74.5t6 -76t2.5 -79.5q0 -36 4 -76t18 -73 q2 -5 23.5 -17.5t46.5 -28t45.5 -31.5t20.5 -29zM840 637q-8 25 -22.5 48.5t-31 42.5t-33.5 30.5t-30 11.5q-7 0 -10 4t-6 9t-7.5 9.5t-13.5 5.5q-23 3 -45 9.5t-43.5 13.5t-43.5 12t-44 5h-9q-19 -1 -31 -6.5t-22.5 -12.5t-21.5 -14.5t-27 -11.5q-15 -4 -24 -10.5 t-17 -13.5l-16 -14t-21 -13q-11 -5 -23 -9t-12 -19q0 -5 1 -10.5t1 -11.5q0 -8 -2.5 -9t-7 -1.5t-9.5 -2t-10 -9.5q-10 -16 -14.5 -34.5t-4.5 -37.5q0 -98 16 -189.5t60 -180.5q7 -16 23 -29t35.5 -24t39.5 -20t35 -17q23 -12 48 -20t51 -8q27 0 53.5 8t52.5 20t51 26.5 t48 26.5q17 9 23 20t8.5 23.5t5 25.5t11.5 25q12 18 21 29.5t15 23.5t8.5 27t2.5 38q0 26 -3 50.5t-3 50.5q0 7 2 22t3 33.5t0 39t-7 38.5z" />
<glyph unicode="r" horiz-adv-x="1186" d="M1158 730q0 -20 -8 -34t-17.5 -26.5t-19 -25.5t-12.5 -31q-9 4 -18.5 5t-19.5 1q-24 0 -47.5 -3.5t-46.5 -3.5q-27 0 -44.5 16.5t-28 40.5t-14.5 51.5t-4 49.5q0 28 9 57q-8 3 -14 3q-13 0 -18.5 -8t-15.5 -8q-9 0 -16 6.5t-17 6.5q-15 0 -37.5 -9.5t-43.5 -24.5 t-36.5 -32.5t-15.5 -33.5q-21 -2 -39.5 -11.5t-35.5 -20.5q-13 -8 -22 -25t-16.5 -36.5t-15 -39.5t-17.5 -33q-17 -22 -29.5 -44.5t-12.5 -50.5q0 -35 11 -71t11 -73q0 -24 -3.5 -48t-3.5 -47q0 -28 10 -45t27 -26.5t39 -12.5t45 -3q25 0 48.5 1.5t43.5 1.5q7 -8 8 -15 t-0.5 -14.5t-4 -15t-2.5 -17.5q0 -4 2 -10q15 0 26 7t16 22q7 -2 12.5 -6t5.5 -12q0 -6 -3 -11.5t-7 -10.5t-7 -10.5t-3 -12.5q0 -4 1 -8.5t3 -7.5q-5 -8 -14 -11t-18 -3q-16 0 -26.5 5t-19 11t-15.5 11t-17 5q-4 0 -12 -2t-16 -5t-14 -7.5t-6 -8.5q0 -8 5.5 -14t5.5 -14 q0 -7 -5 -11t-12 -5.5t-14.5 -2t-12.5 -0.5q-39 0 -77.5 8.5t-77.5 8.5q-18 0 -36 -8t-38 -8q-11 0 -16.5 4.5t-9.5 10.5t-9 10.5t-15 4.5q-19 0 -37.5 -4t-37 -8.5t-37 -8t-37.5 -3.5q-10 0 -24 2.5t-27 8.5t-22 15t-9 22q0 8 9.5 21t21.5 25.5t24 21.5t18 9q16 0 31.5 -1 t32.5 -1q27 0 54.5 8.5t50 24.5t36.5 40t14 54q0 13 -2 25.5t-2 25.5q0 26 6 52t6 52q0 35 -7.5 71.5t-7.5 73.5q0 33 1.5 65.5t1.5 65.5q0 15 -1 44t-6.5 58t-17 51t-31.5 22q-22 0 -44 -5t-45 -5q-17 0 -40 2.5t-44 10t-36 21.5t-15 37q0 25 7 40.5t18.5 23.5t27 11 t33.5 3q16 0 33 -1t33 -1q32 0 63.5 3.5t63.5 3.5q22 0 44 -2t43 -9q19 -6 28 -22.5t16.5 -33.5t17.5 -30.5t32 -13.5q10 0 18.5 5.5t16.5 12.5t16 13t19 8q22 3 40.5 14t36.5 22t36.5 20t40.5 9q13 0 32.5 3t39 8.5t37 13.5t27.5 18q27 -2 63.5 -13t70 -29.5t58.5 -43.5 t29 -56q3 -19 11 -36t16.5 -33.5t15.5 -34t7 -36.5z" />
<glyph unicode="s" horiz-adv-x="1064" d="M984 306q0 -13 -4.5 -25.5t-10.5 -25t-11.5 -24.5t-7.5 -25q-5 -27 -20.5 -48.5t-35.5 -40.5t-42 -36.5t-39 -35.5q-15 -15 -32 -15q-10 0 -19 2t-19 2q-14 0 -22.5 -5t-16 -10.5t-18 -10.5t-28.5 -5q-13 0 -25 -7t-24 -7q-17 0 -39.5 10t-49.5 10q-17 0 -34 -1.5 t-34 -1.5q-15 0 -29.5 4.5t-28 10t-27.5 10t-29 4.5q-30 0 -51 -15t-37.5 -33.5t-33 -33.5t-37.5 -15q-19 0 -25.5 6.5t-8 15.5t-2.5 19.5t-9 18.5q-15 16 -20 29.5t-5 35.5q0 48 8.5 93.5t8.5 93.5q0 17 -4 33t-9.5 29t-9.5 22t-4 13q0 9 5 19t11.5 18.5t14 14t12.5 5.5 q10 0 17.5 -5t15 -10.5t15 -10.5t18.5 -5q2 0 3 0.5t3 0.5q14 -23 22 -49.5t16.5 -52t21 -49t35.5 -41.5q6 -5 14 -11t16.5 -12t17 -10t15.5 -4q11 0 21.5 2t21.5 2q15 0 15 -10q0 -2 -2 -8h12h7q38 0 76 9t77 9q18 0 36.5 -3.5t33.5 -14.5q19 9 32 23t26 27.5t29 24 t41 11.5q5 6 5.5 14t0.5 15.5t1.5 14.5t7.5 13q10 9 15.5 18.5t5.5 23.5q0 27 -15 50.5t-38.5 43t-54 35t-62 26.5t-60.5 16.5t-51 5.5q-25 0 -49.5 -4.5t-47.5 -15.5q0 22 -10 29t-24 10t-28.5 8.5t-22.5 24.5q-17 -22 -42.5 -32t-51.5 -10t-48 10t-39.5 27t-28 39 t-11.5 47q-1 17 -7 30t-13 25t-12.5 25t-5.5 31q0 45 4.5 70.5t11.5 39t15.5 19t17.5 11t17 15.5t13 32q3 15 9 20t21 7q13 2 17 6t5.5 9t3.5 10.5t10 10.5q21 14 41.5 17.5t42.5 3.5q13 0 25 -0.5t26 -0.5q42 0 82 4t82 4q32 0 58.5 -6.5t46.5 -14.5t34.5 -14.5t23.5 -6.5 q17 0 32.5 6.5t32.5 7.5q8 -7 18.5 -12.5t21.5 -5.5q8 0 12 5t5 13q14 -4 27 -14t23.5 -23.5t16.5 -29t6 -29.5q0 -37 -5.5 -73.5t-5.5 -73.5q0 -38 10 -71q-14 -11 -30.5 -19.5t-27.5 -23.5l-1 1q-7 6 -17.5 15.5t-22 18.5t-22.5 15.5t-20 6.5h-2q-5 3 -8.5 7t-3.5 10 q0 10 6 18t6 18q0 3 -9 14t-20.5 22.5t-22.5 21t-16 10.5q-10 2 -21 7l-22 10t-20.5 9t-15.5 4q-13 0 -26 -3.5t-27 -4.5h1l-45 5q-33 4 -65 16t-66 12q-30 0 -44 -14t-23 -31.5t-18 -31.5t-30 -14q-6 0 -9 1q10 -32 18.5 -54t20.5 -39.5t30 -33t46 -33.5q3 -2 8.5 -7 t11.5 -10.5t11.5 -9.5t8.5 -4q17 0 32.5 8t32.5 8q12 0 22.5 -5.5t22.5 -5.5t23 4.5t24 4.5q5 0 10.5 -1t10.5 -2q30 -8 60 -7.5t61 -0.5q22 0 44.5 -8t43.5 -20.5t39 -28.5t31 -33q10 -14 22 -25t23.5 -22.5t20.5 -24.5t13 -30q5 -20 13.5 -44t8.5 -43z" />
<glyph unicode="t" horiz-adv-x="1045" d="M999 355q0 -32 -7 -60.5t-16 -56t-18.5 -56t-14.5 -58.5q-9 -50 -36 -83t-65 -52.5t-84.5 -29t-95.5 -14.5t-96.5 -7t-87.5 -7q-15 11 -25 24t-19 24.5t-20 19t-29 7.5q-6 0 -9.5 16.5t-6.5 37t-6.5 37t-9.5 16.5q-23 0 -36.5 10t-21 25.5t-10 34.5t-2.5 37q0 14 -6 26 t-13 23.5t-13 23.5t-6 25q0 15 1.5 37.5t3 46.5t3 47t1.5 38q0 18 4.5 30t10.5 21t10.5 16t4.5 16q0 12 -5.5 20t-5.5 16q0 11 7 21.5t10 21.5q11 44 11 87q0 9 -0.5 17.5t-1.5 16.5q-23 19 -51 24.5t-56 8t-54 6.5t-44 21q-15 14 -27 31.5t-32 23.5q-14 5 -23.5 13.5 t-9.5 24.5q0 24 14.5 36.5t34.5 20t41.5 13t36.5 16.5t36 11q9 0 17.5 -0.5t17.5 -0.5q25 0 41.5 8.5t26 23t13 33.5t3.5 41q0 32 -4 62t-4 62q0 37 10 68t38 57q6 5 13 13t15 15.5t16.5 12.5t17.5 5q6 0 10.5 -2.5t9.5 -6.5q22 -22 28.5 -32.5t6.5 -24.5q0 -8 -0.5 -17.5 t-0.5 -24.5q0 -32 8 -63t8 -53q0 -19 -7.5 -36.5t-7.5 -36.5q0 -14 6.5 -25.5t15 -22.5t15.5 -22.5t7 -26.5q10 -7 45 -12.5t78 -9t87 -5.5t73 -2q26 0 40 -4t23.5 -8.5t17.5 -9.5t21 -6q16 -2 27.5 -8.5t11.5 -25.5q0 -24 -12.5 -38t-31 -21t-39.5 -8.5t-39 -1.5 q-29 0 -58 2t-58 2q-48 0 -87 -9t-67.5 -30t-44 -55.5t-15.5 -86.5q0 -51 6.5 -100t6.5 -100q0 -48 1.5 -77t11.5 -49q13 -29 21 -66t20.5 -70t35 -55.5t66.5 -22.5q15 0 40 4t50 12.5t43 22t18 33.5q0 17 -10 34.5t-10 37.5q0 14 6.5 24.5t17 19t22 15t22.5 11.5 q18 23 43.5 38.5t54.5 15.5q20 0 38.5 -7t34.5 -18q3 -18 3 -37z" />
<glyph unicode="u" d="M1277 63q0 -18 -11.5 -38t-29 -36.5t-37.5 -27.5t-38 -11q-31 0 -61 5t-62 5q-15 0 -34.5 2t-27.5 10q-23 4 -34 17.5t-19.5 29.5t-18 31t-28.5 21q-57 -25 -100.5 -48t-86 -40.5t-91 -28t-115.5 -10.5q-29 0 -41.5 3t-19 9.5t-12 17.5t-20.5 27q-8 8 -15.5 9.5 t-14.5 1.5h-5q-9 0 -16.5 3.5t-11.5 19.5q-3 12 -12 27.5t-20.5 31.5t-23.5 29t-22 20l-1 99q-1 100 6 198t7 198q0 15 -1 41.5t-4.5 53.5t-12 48.5t-23.5 25.5q-23 5 -46.5 4.5t-46.5 0.5t-44.5 7t-40.5 26q-11 11 -20.5 27t-9.5 33q0 25 21.5 42.5t51.5 28.5t61 16t50 5 q55 0 104.5 -16.5t90.5 -53.5q2 -2 2 -4q0 -1 -1 -2q2 -29 8 -57.5t6 -57.5q0 -16 -4.5 -30t-4.5 -31t4 -34t4 -34q0 -11 -2 -22t-2 -22q0 -31 7 -60.5t7 -60.5q0 -27 -6 -52.5t-13.5 -51.5t-13.5 -51.5t-6 -52.5q0 -37 15 -69t40 -55.5t57.5 -37t68.5 -13.5q31 0 50.5 6.5 t31.5 14.5t19.5 14.5t15.5 6.5t14.5 -1.5t13.5 -1.5q14 0 23 6t16.5 14t15 15.5t19.5 10.5q23 5 40 13.5t17 35.5q0 5 1.5 9t9.5 4q5 0 7.5 -2.5t7.5 -4.5q5 4 7 11t4 12q5 18 18.5 32t15.5 32q2 20 10 37t8 36q0 17 -9 30t-9 31q0 20 7.5 40t7.5 40q-6 8 -11.5 18t-5.5 20 q0 17 6 22.5t6 11.5q0 9 -4.5 18.5t-10.5 18.5t-10.5 18t-4.5 19t3.5 19.5t3.5 20.5q0 16 -7.5 28.5t-19 21t-26 13t-28.5 6.5q-25 3 -43 3t-31.5 4.5t-25 16.5t-23.5 39q-7 16 -7 27q0 24 21.5 38.5t50.5 22t58.5 10t46.5 2.5q16 0 31.5 -2.5t31.5 -2.5q17 0 33.5 6.5 t33.5 6.5q24 0 39 -13.5t23.5 -35t11.5 -49t3 -55.5q0 -37 -2.5 -70t-2.5 -53q0 -43 8.5 -80.5t8.5 -69.5q0 -10 -4.5 -20t-9.5 -20t-9.5 -20t-4.5 -20q0 -8 3 -14l7 -58q-5 -4 -6 -10t-1 -11q0 -16 3.5 -31.5t3.5 -32.5q0 -19 -4 -37.5t-4 -37.5q0 -46 31.5 -70.5 t74.5 -24.5q24 0 48 8q7 -15 19.5 -26.5t24.5 -22.5t20.5 -25t8.5 -34z" />
<glyph unicode="v" horiz-adv-x="1239" d="M1245 912q-2 -34 -20.5 -56t-45.5 -35t-58.5 -18.5t-58.5 -6.5q-37 -2 -52 -16t-25 -48q-5 -16 -14 -39t-20.5 -46.5t-23.5 -44.5t-24 -32q1 -11 5 -22t4 -22q0 -13 -9 -27q-11 -18 -15 -31.5t-5 -26t-2 -26t-7 -30.5q-10 -27 -25 -52t-32 -48q-9 -42 -19.5 -86 t-25.5 -86.5t-35 -82t-48 -73.5l-15 1h-6q-27 0 -53 -8.5t-52 -8.5q-15 0 -23.5 5.5t-14.5 14t-10.5 19t-11.5 20.5v28q-5 4 -11 4.5l-12 1t-11 2t-8 7.5q-6 10 -7.5 24.5t-2 30.5t-2 32t-7.5 31q-6 14 -12 26.5t-12 26.5q-7 15 -9.5 32t-4.5 34t-5 33.5t-11 31.5 q-8 13 -15 23t-13.5 20t-12 21t-8.5 27q-21 96 -52 187.5t-83 174.5q-12 -6 -25.5 -8.5t-27.5 -2.5q-28 0 -58 8q-23 5 -39.5 9.5t-27.5 13t-16.5 24.5t-5.5 44q0 27 12.5 43.5t31.5 26t42.5 13t44.5 3.5q35 0 67.5 -7.5t65.5 -7.5t65.5 3.5t65.5 3.5q7 0 27.5 -3t43 -10.5 t41 -20.5t21.5 -32q0 -21 -6 -43.5t-21 -36.5q-7 -7 -21.5 -10.5t-29 -6.5t-25.5 -6t-12 -7q-4 -19 -6.5 -41t-2.5 -42q0 -15 3.5 -23t8 -12t8 -6.5t4.5 -7.5q2 -12 4 -23.5t4 -22.5q1 -10 9 -24t17 -28t16 -27t7 -20q0 -2 -11 -5t-11 -6q0 -2 5 -4.5t11.5 -5t12 -4 t7.5 -1.5v-15q0 -36 10 -68t22.5 -62.5t24.5 -61t15 -64.5l13 -1h5q22 0 34 13t21.5 29t21.5 29.5t33 14.5q1 5 1 14q0 13 -3.5 25.5t-3.5 25.5q0 17 5 25.5t11 17t11 21t5 38.5q0 8 4 17t10 18t12.5 17.5t10.5 15.5q15 22 22.5 54.5t11 66.5t4 65.5t0.5 52.5q0 23 -18.5 32 t-41 13.5t-41 10t-18.5 21.5q0 7 3 12.5t7 11t7 11t3 11.5q0 7 -3.5 12.5t-3.5 12.5q0 16 13 25.5t31 14.5t36.5 6.5t29.5 1.5q18 0 32 -4.5t26.5 -10t24.5 -10t24 -4.5q10 0 14 7q11 15 15 22.5t9 10.5t14 3.5t30 1.5l35 1q28 1 57.5 -1.5t58 -10.5t54 -23t43.5 -39z M1017 941q-14 2 -22 13.5t-21 14.5q-2 -3 -2 -10q0 -11 9.5 -22t20.5 -11q7 0 10 4.5t5 10.5z" />
<glyph unicode="w" horiz-adv-x="1390" d="M1379 919q0 -32 -20.5 -50t-48.5 -31t-57.5 -25.5t-46.5 -33.5q-29 -35 -41.5 -82t-19 -98t-11 -102t-17.5 -94q-5 -15 -5 -34.5t-1.5 -38t-8.5 -34t-25 -22.5q-5 -2 -12 -5t-7 -9q0 -7 6 -11t12.5 -7.5t12.5 -9t6 -15.5q0 -20 -5.5 -40t-12 -40t-12 -41.5t-5.5 -45.5 q0 -15 -3.5 -22t-9.5 -11t-15 -6.5t-20 -9.5q-10 -6 -20.5 -11t-23.5 -5q-11 0 -22 5t-22.5 11.5l-23 13t-22.5 9.5q-8 31 -15.5 51t-14 35t-11.5 28t-9 30.5t-6 41.5t-2 62q0 17 -3 33.5t-12 30.5q-17 26 -26.5 54t-14.5 56.5t-7.5 58t-5.5 59.5q-1 7 -2 20t-4.5 26t-10 22 t-17.5 9t-23.5 -9.5t-28.5 -21t-37 -21t-49 -9.5q10 -12 20 -16t24 -6q14 -3 20.5 -8t10 -12t6 -16t8.5 -19q10 -17 10 -37q0 -28 -12 -55.5t-27 -50.5q-10 -16 -13.5 -34t-5 -36t-3.5 -36t-10 -35q-3 -7 -9 -19.5t-6 -20.5q0 -3 2.5 -8t6 -11.5t6 -14t2.5 -13.5 q0 -10 -5 -22.5t-11.5 -26t-13 -26.5t-9.5 -24q-6 -19 -16.5 -29.5t-25 -15.5t-31 -6t-32.5 -1q-29 0 -45 2.5t-24.5 11t-13 24.5t-10.5 42q-6 24 -12.5 48t-6.5 49q0 27 12 51q-8 13 -14 30t-15 27q-10 11 -21 21.5t-21 21.5q1 11 1 20.5v20.5q0 81 -17 166.5t-41 163.5 q-11 32 -24 63t-19 65q-11 0 -21 0.5t-21 0.5q-9 0 -15 -5t-12.5 -11t-14 -11t-17.5 -5q-15 0 -29.5 10t-26 24.5t-18.5 31t-7 30.5q0 19 10.5 38t27 34.5t36.5 25t38 9.5q23 0 44 -9t44 -9q18 0 36 2.5t37 2.5q27 0 54 -2t54 -2q14 0 27 -6.5t25 -15t24 -18t24 -15.5 q-1 -22 -10.5 -33.5t-24 -19t-31 -14.5t-30 -19.5t-23 -34t-9.5 -57.5q0 -44 21 -78q5 -9 5 -23q0 -11 -2 -22.5t-2 -21.5q0 -12 6 -19q15 -18 18.5 -46.5t6 -58.5t8 -56.5t24.5 -38.5h7q27 0 39.5 20t17.5 47.5t5.5 56.5t2.5 47q16 14 25 41.5t14 58.5t6.5 61.5t1.5 50.5 q0 31 -7.5 50.5t-17 33.5t-17 26.5t-7.5 30.5q0 21 23.5 36.5t56.5 25t67 14t55 4.5q15 0 20.5 -0.5t7.5 -1.5q0 8 19 8q15 0 37 -4t44 -8.5t41 -8.5t28 -4q29 0 59.5 8t56.5 20q40 18 80.5 24.5t83.5 6.5q23 0 54 -5t59.5 -15.5t48 -25.5t19.5 -34q0 -4 -0.5 -7t-0.5 -4z M817 888q0 9 -8.5 13.5t-15.5 6.5q-1 -11 -6.5 -17.5t-7.5 -15.5q2 -2 2 -7q0 -2 5.5 -1.5t12.5 3t12.5 7.5t5.5 11zM1049 779q-13 16 -34 31.5t-43.5 27.5t-42.5 19t-32 7q-2 0 -7 -5.5t-11.5 -13t-14.5 -14t-14 -9.5q0 -49 -1.5 -97.5t-1.5 -97.5q0 -25 4.5 -46.5 t21.5 -41.5q8 -10 15.5 -31.5t16 -43.5t19.5 -38.5t25 -16.5q18 0 30.5 23t21.5 59t15 80t11 85t10 74.5t12 48.5z" />
<glyph unicode="x" horiz-adv-x="1353" d="M1296 912q0 -20 -8 -36.5t-8 -34.5q0 -4 0.5 -7t1.5 -7h-9h-6q-23 0 -45 -10.5t-46 -10.5q-25 0 -37 21q-14 -3 -33.5 -9.5t-40 -14.5t-39 -17t-29.5 -16l-14 -29q-29 -13 -50.5 -36.5t-21.5 -56.5v-7q-18 -2 -29 -14.5t-20 -28.5t-17.5 -30t-19.5 -19 q-20 -9 -25.5 -28.5t-5.5 -39.5q0 -32 8 -67q7 -30 26.5 -59t44.5 -55t52.5 -50t49.5 -44q10 -9 19 -20.5t19 -21t22 -16t27 -6.5h4h9h6q25 0 47.5 -7t48.5 -7q8 0 18.5 -0.5t20.5 -2.5t18.5 -7t11.5 -14q1 -4 2.5 -10.5t4 -12.5t6 -10.5t9.5 -4.5q3 0 7 1.5t7 3.5 q-5 -8 -6 -17t-1 -18q0 -13 1.5 -25t1.5 -25q0 -5 -0.5 -12.5t-3 -15t-6.5 -13t-11 -5.5q-11 0 -21.5 6t-21.5 6q-6 0 -11.5 -5t-14 -10.5t-22.5 -10.5t-38 -5q-23 0 -45.5 3.5t-45.5 8t-45.5 8.5t-45.5 4q-24 0 -47 -8.5t-47 -8.5q-13 0 -23 6.5t-19 14t-18.5 14.5t-22.5 9 q-19 2 -27.5 10.5t-8.5 28.5q0 23 8.5 44t18 40.5t18 38.5t8.5 37q0 12 -2.5 25t-7.5 23.5t-14 17.5t-22 7q-4 0 -14 -2q-6 7 -10.5 19t-10 22.5t-13.5 18.5t-20 8q-13 0 -23 -12.5t-18 -28t-16 -28.5t-17 -13q-13 -12 -29 -29t-16 -37q0 -12 8.5 -25.5t18.5 -28.5 t18.5 -30.5t8.5 -31.5q0 -5 -0.5 -13.5t-2.5 -17.5t-5 -16.5t-8 -10.5q-6 -4 -14.5 -5t-16.5 -2.5t-14 -5t-6 -13.5q0 -1 0.5 -2t0.5 -3q-7 6 -23 7t-24 1q-66 0 -131.5 -6.5t-131.5 -6.5q-17 0 -44 1t-53.5 7.5t-45.5 20t-19 37.5q0 11 3.5 22t8.5 21q12 23 32.5 35t44 17 t48.5 5.5t47 1.5t38.5 3.5t23.5 12.5q21 28 37.5 56t36 52.5t45.5 43t64 26.5q7 14 10.5 25t7 21t9 20t18.5 22q11 10 15 22t4 26q0 15 -4.5 31.5t-12.5 31t-20 26t-27 17.5v5v2q0 11 7 18t7 18q-16 13 -35 20.5t-36 21.5q-14 11 -22 28t-22 29q-26 22 -50.5 44.5 t-33.5 55.5q-6 -2 -10 -2q-19 0 -38 10.5t-37 15.5q-20 6 -53.5 11t-66 14.5t-56 27t-23.5 48.5q0 20 24 30.5t55.5 14.5t62 4h44.5q13 0 22 -3t15 -6.5t9 -6.5t6 -3q5 0 5.5 7t11.5 9q23 4 49.5 5.5t49.5 1.5q21 0 40 -7.5t40 -7.5q18 0 36.5 3t36.5 3q27 0 49.5 -16.5 t22.5 -46.5q0 -19 -12 -34.5t-27 -31t-27 -32t-12 -37.5q0 -16 16 -39.5t38 -45t45.5 -37t38.5 -15.5q16 0 39.5 17.5t45.5 41t37.5 48t15.5 38.5q0 12 -8.5 23.5t-18.5 23.5t-18.5 26.5t-8.5 33.5q0 31 20.5 50.5t49.5 31t61 16t55 4.5q24 0 42 -4.5t33.5 -10.5t29 -10.5 t28.5 -4.5q19 0 39 4t36.5 8.5t27.5 8.5t13 4q13 0 27.5 -6.5t29 -16.5t27 -21.5t22.5 -20.5z" />
<glyph unicode="y" horiz-adv-x="1214" d="M1220 912q0 -12 -6 -25.5t-15.5 -25t-21.5 -20.5t-23 -13q-18 -6 -44.5 -8t-51 -7t-42 -17.5t-17.5 -39.5q0 -16 -2 -20.5t-10 -4.5q-2 0 -5.5 0.5t-7.5 0.5l-9 -5q-14 -34 -16.5 -71t-12.5 -72q-19 -1 -30.5 -18t-18 -39.5t-11 -45.5t-9.5 -36q-31 -75 -63.5 -147 t-69.5 -144q-3 -6 -7 -19.5t-9 -27t-11.5 -23.5t-15.5 -10q-12 5 -23 12.5t-23 8.5q-4 -1 -4 -5q0 -11 10.5 -18t23 -14t23 -14t10.5 -17q0 -9 -6.5 -19t-14.5 -21.5t-15 -24.5t-8 -29q-2 -20 -11.5 -36t-21 -31.5t-21 -33t-12.5 -39.5q-2 -17 -7.5 -34.5t-14.5 -32.5 t-22 -26t-31 -14q-5 -30 -24.5 -59t-47.5 -51.5t-60 -36t-63 -13.5q-25 0 -48.5 7t-45.5 18q-15 7 -24 8t-15.5 2t-14 6t-19.5 20q-18 24 -38.5 44.5t-41.5 40.5q-11 10 -16 24t-9 28t-10.5 27t-21.5 21q-5 5 -5 18q0 9 7 37t18 57.5t24.5 53t25.5 23.5q8 0 15 -2.5t15 -2.5 q20 0 39 10t40 10q13 0 19.5 -7t9.5 -16t5.5 -16t9.5 -7q5 1 9 3q10 4 16 4q13 0 24 -6.5t20 -16.5t16.5 -21.5t13.5 -21.5q3 -5 9 -10.5t12 -11.5t10 -11.5t4 -11.5q0 -11 -5.5 -20t-5.5 -18q0 -10 8.5 -14t16.5 -4q19 0 37.5 15.5t35.5 40.5t31.5 55.5t25.5 61t17 57 t6 42.5q0 17 -8 47t-21 66t-29 76t-31.5 77t-28.5 68.5t-21 51.5q-16 38 -28.5 78t-28.5 78q-9 21 -25.5 48.5t-33 57t-29 58t-12.5 50.5q-8 0 -17.5 3.5t-18.5 8t-17.5 8t-15.5 3.5q-21 0 -43 -5.5t-44 -5.5q-12 0 -28 2.5t-30.5 8t-25 15.5t-10.5 25q0 11 3 25t8.5 26.5 t13.5 21t18 8.5q15 0 29 -9.5t30 -9.5q23 0 45.5 2t45.5 2q20 0 39.5 11t36.5 20q19 10 54.5 12.5t71.5 2.5q13 0 41 1.5t56.5 -2.5t50 -17.5t21.5 -42.5q0 -25 -10.5 -41.5t-26 -28.5t-34 -21.5t-34 -20t-26 -24.5t-10.5 -35q0 -33 19 -70.5t42 -74t43 -69.5t23 -57 q1 -13 7 -37t16.5 -47.5t25 -41t31.5 -17.5q12 0 21 10t16 24t11.5 28.5t7.5 23.5q9 28 16.5 56t24.5 52q14 18 22 37.5t17 40.5q10 25 20.5 39t18.5 28t13.5 34t5.5 58q0 23 -10 34t-24.5 17t-31.5 10t-31.5 12.5t-24.5 25.5t-10 48q0 26 16 41.5t39.5 23t51.5 9.5t52 2h35 q44 0 86.5 6t85.5 6q13 0 38 -7t50 -16t42.5 -17.5t16.5 -11.5q0 1 6.5 -8t6.5 -21zM395 -257l-15 1h-6q-17 0 -27 -8.5t-10 -26.5l1 -8q9 2 19 3.5t18.5 4.5t14 9t5.5 17v4v4z" />
<glyph unicode="z" horiz-adv-x="1083" d="M996 28q-17 -2 -22.5 -14.5t-11.5 -25.5q-5 -11 -18.5 -17.5t-31 -10t-38 -4.5t-38.5 -1q-53 0 -104.5 3.5t-103.5 8t-103.5 8.5t-103.5 4q-53 0 -103.5 -10t-101.5 -10q-9 0 -29 4t-40.5 11t-36.5 15t-16 17q0 19 0.5 39t4 38.5t12 35.5t23.5 31q12 10 15 18.5t6 15.5 t8.5 12.5t22.5 11.5q4 1 9 9.5t11 19t11.5 20t9.5 14.5q25 29 52.5 55t55.5 52q30 28 55 61t54 63q26 26 55.5 47.5t54.5 49.5q12 13 19.5 24.5l15 23t17 22t25.5 22.5q6 4 15 17t17 28t13.5 29.5t5.5 22.5q0 15 -11 24.5t-26.5 15.5t-32 8t-27.5 2q-15 0 -28 -5t-26 -5 q-15 0 -29 5t-28 5q-5 0 -10 -1t-10 -3q-14 -4 -33.5 -5.5t-39.5 -3.5t-37.5 -5.5t-27.5 -10.5q-20 -15 -32 -29t-18 -27.5t-8 -27.5t-2 -30q0 -13 0.5 -27.5t0.5 -31.5q0 -35 -18 -56.5t-56 -21.5q-22 0 -36 14t-21.5 35.5t-10 46.5t-2.5 47.5t1 38t1 17.5q0 26 1.5 54.5 t7.5 54t17 46.5t29 33q9 6 20.5 12.5t24 12t25 9t23.5 3.5q23 0 31 -21q4 -11 11.5 -20.5t15 -18.5t13.5 -18.5t7 -19.5h5q8 0 16.5 -5.5t13.5 -5.5q9 0 9.5 9t0.5 16q0 13 -7 20.5t-16 13.5t-16 12.5t-7 18.5l1 6q27 -5 54 -6.5t54 -1.5q45 0 89 3.5t88 8t88 8.5t88 4 q8 0 19 -0.5t22.5 -2t22 -4.5t16.5 -9q-6 -7 -14 -18t-9 -21q6 -7 6.5 -7t5.5 -1q6 0 9.5 6t6.5 12.5t5.5 12.5t7.5 6q7 0 13 -9.5t10.5 -22.5t7 -26t2.5 -20q0 -9 -2.5 -12.5t-6 -5l-7 -3t-6.5 -5.5q-9 -15 -12 -30.5t-14 -30.5q-24 -36 -55 -65t-62 -59q-14 -13 -25 -28 t-21.5 -30.5t-22 -30t-24.5 -27.5q-14 -13 -23.5 -18t-17.5 -10.5t-14.5 -14t-13.5 -28.5q-3 -9 -26 -25.5t-51 -37t-52.5 -43t-31.5 -42.5q-6 -17 -13.5 -34.5t-14 -36t-11.5 -37t-5 -36.5q0 -31 25 -48t59 -25.5t70 -10t57 -1.5l65 1q55 1 85 20t44.5 48.5t19 65.5t7 71.5 t9 66t26.5 49.5q5 1 10 1h10q26 0 49 -9.5t45 -20.5q-1 -29 -7.5 -58t-6.5 -56q0 -14 14 -14q-1 -17 -7.5 -21.5t-6.5 -11.5q0 -5 4 -14.5t9 -21.5t9 -26.5t4 -29.5q0 -17 -2 -34t-2 -34q0 -25 6 -50z" />
<glyph unicode="{" horiz-adv-x="563" d="M468 1354q-8 -26 -32 -48t-49.5 -45t-45.5 -49.5t-20 -61.5q0 -5 -4 -12.5t-8.5 -16t-8.5 -16.5t-4 -14q0 -2 1 -3v1l2 -7v1q7 -13 8 -25.5t1 -26.5v-6q0 -2 7 -16t18 -34h-1l9 -18q7 -14 15.5 -26.5t16 -24t13 -23t5.5 -23.5q0 -41 -4 -60t-13 -30.5t-23 -23.5t-34 -37 l-18 -23q-12 -15 -24 -26l29 -23q4 -5 7.5 -9t5.5 -6q22 -5 38.5 -17.5t27 -30t15.5 -38t5 -40.5q0 -41 -13 -75.5t-28 -67.5t-28 -67t-13 -72q0 -8 6.5 -19t6.5 -22v-3q6 -11 8 -18.5t4 -13t6 -10t14 -10.5q20 -17 36 -41.5t16 -53.5l22 -22v1q10 -9 18 -18.5t8 -20.5 q0 -16 -11 -32.5t-27 -30.5t-33.5 -23.5t-30.5 -11.5q-6 4 -20.5 15.5t-31.5 24t-32 24.5t-21 17l-11 55l-20 60q0 1 -9.5 7.5t-22 19t-25 32t-18.5 48.5q0 16 3.5 32.5t3.5 31.5q5 26 6.5 40.5t3.5 24t5.5 17t12.5 19.5q0 -4 0.5 6t2 26.5t5.5 37t11 38.5l16 19q4 5 7 9 t3 7q0 6 -10.5 16.5t-24.5 21.5t-27.5 20t-17.5 13l-10 8l2 -2l-28 18t-25 20t-18 25.5t-7 33.5q0 18 7 33t18.5 28.5t25 25t26.5 22.5l19 18q6 5 13.5 11t10.5 11l-1 -1q9 16 17.5 24t18.5 13l20 29l-1 1l-5 10l1 -3q-2 4 -2 6q0 7 4.5 16t4.5 18q0 2 -2 8l-18 14l-21 4 l1 -1q-3 5 -5.5 12t-6 18t-8.5 28.5t-13 44.5v-1q-3 5 -7.5 17t-10.5 26v6q-2 5 -2 16q0 13 7 42t18.5 59t26.5 54.5t30 29.5q3 9 8 17.5t7 16.5v2q6 18 21 40t33.5 42t38 37t34.5 25l28 -2q33 -7 53 -26.5t20 -51.5q0 -14 -10 -43z" />
<glyph unicode="|" horiz-adv-x="533" d="M350 890q0 -6 -1.5 -22.5t-3.5 -35t-3.5 -35.5t-1.5 -23q0 -16 3 -31.5t3 -33.5q0 -10 -4 -19.5t-4 -20.5q0 -8 1 -27t2.5 -40.5t3 -40.5t1.5 -27q0 -11 -3 -20t-3 -20q0 -10 4 -17.5t4 -17.5q0 -6 -1 -22.5t-2 -35t-2.5 -34.5t-2.5 -21q-2 -19 1 -37t3 -36 q0 -6 -1.5 -16.5t-3 -22.5t-2.5 -22.5t-1 -15.5q0 -7 2 -12t2 -13q2 -15 0 -29.5t-2 -29.5q0 -10 4 -17.5t4 -17.5q0 -9 -3 -15t-3 -14t4 -13t4 -12q0 -8 -5 -15t-5 -18q0 -7 3 -13.5t3 -14.5q0 -11 -9 -19t-22 -13t-27 -8t-24 -3q-42 0 -62 25t-20 60q0 29 7.5 57.5 t7.5 57.5q0 13 -6.5 23t-6.5 24q0 10 2.5 25.5t5 32.5t5 32.5t2.5 26.5q0 15 -6 31t-6 34q0 15 1 41t2.5 54.5t3 55.5t1.5 42q0 5 -1 21t-2 35t-2 35t-1 21q0 13 4 25.5t4 26.5q0 21 -2 43.5t-2 44.5q0 10 2.5 31.5t5.5 44.5t5.5 43.5t2.5 30.5q0 7 -2 19.5t-5 26.5t-5 27 t-2 21q0 10 2 26.5t4 34.5t4 34t2 27q0 9 -3.5 28t-8 41.5t-8 45t-3.5 40.5q0 15 6.5 28.5t6.5 26.5q0 10 -3 18t-3 16q0 17 3.5 36t12.5 35.5t24.5 27t39.5 10.5q21 0 34 -9t21 -23t11 -30.5t3 -31.5q0 -11 -4 -20t-4 -19q0 -31 5 -66.5t5 -73.5q0 -19 -4 -47.5t-4 -47.5 q0 -11 2.5 -26.5t5.5 -33t5.5 -33.5t2.5 -26q0 -5 -1.5 -15.5t-3 -22.5t-2.5 -22.5t-1 -14.5q0 -15 5 -30t5 -30z" />
<glyph unicode="}" horiz-adv-x="567" d="M500 650q0 -17 -7 -31.5t-18 -26.5t-25 -21.5t-27 -17.5l-6 -5q-6 -5 -19.5 -7.5t-27.5 -5.5t-24.5 -7t-10.5 -10q0 -1 -4 -10.5t-9 -20.5t-9 -21t-3 -13l18 -32l-2 2l10 -14q8 -16 10.5 -28.5t2.5 -23t-0.5 -19.5t2.5 -19l58 -87l1 -5q2 -18 3 -41.5t1 -36.5 q0 -8 -3 -14.5t-17 -25.5l-58 -40l-6 -27q5 -9 5 -18t-5 -15.5t-10.5 -12t-10 -9t-4.5 -5.5l5 -35q-5 -6 -15 -13.5t-21 -15.5t-22.5 -16t-19.5 -14l-31 -23q-13 2 -30 11.5t-32 22.5t-25.5 28t-10.5 30q0 14 7 25.5t18 19.5l-1 -2l24 23q-1 -1 -3 -1q-1 0 -1 2l2 8v-1 q0 26 8.5 42t19.5 26.5t23 17.5t18 13q1 19 5.5 31t9.5 21t8.5 16t3.5 16q0 37 -12 70t-27 65l-3 7q-14 32 -26 66t-12 74q0 27 7.5 47t20.5 35.5t31 29.5t39 29v-1l23 22l-1 -2l5 4q-5 4 -10.5 10t-14.5 19l2 -1l-20 23q-18 27 -35 40t-30 26t-20.5 33t-7.5 61 q0 30 15 63.5t32 65.5q16 30 21.5 43t6 21t0.5 16t6 26q5 11 7.5 20.5t2.5 23.5q0 33 -21 60.5t-47.5 52.5t-51.5 48.5t-32 48.5h1q-5 18 -5 30q0 32 21 51t53 26l30 2q4 -2 17 -13t28.5 -25t29.5 -27t19 -20v1q8 -9 14.5 -22t11.5 -27v1q1 -1 1 -2q0 -2 1 -2l2 -8v3 q5 -19 13 -31q-2 0 -3 -1q15 -9 28 -23.5t17 -31.5l2 -10v3l17 -42v1q10 -22 17.5 -45.5t7.5 -46.5q0 -5 -1 -12t-3 -14l-17 -36q-2 -5 -7.5 -5.5t-13 -5.5t-16 -19.5t-16.5 -46.5q-1 -2 -5.5 -9.5t-9 -16t-8 -16.5t-3.5 -11q0 -2 1 -2q-2 -8 -2 -12q0 -13 5.5 -20t5.5 -9 h-1q0 -11 4 -16t10 -9l9 -6q10 -6 18.5 -14t15.5 -25v1q2 -4 8 -8.5t12 -9.5l20 -20l-1 2l28 -22t25.5 -24.5t18.5 -29.5t7 -35zM335 1292l-5 5q3 0 5 -5z" />
<glyph unicode="~" horiz-adv-x="1145" d="M1030 767q4 -12 8.5 -31.5t4.5 -36.5q0 -16 -5.5 -22.5t-14.5 -14.5q-10 -11 -14.5 -20t-8 -18t-10 -17.5t-21.5 -18.5q-9 -5 -15 -10.5t-12 -10.5t-14.5 -8t-21.5 -3q-7 0 -13.5 0.5t-13.5 0.5q-14 0 -26 -4q-35 -11 -54.5 -18t-38.5 -7q-20 0 -33 6t-24 13.5t-23 15 t-30 9.5q-6 2 -11.5 1.5t-10.5 0.5q-17 0 -37.5 8t-42 18.5t-43 20.5t-40.5 13q-18 3 -35 3h-24q-11 0 -22.5 2t-22.5 2q-26 0 -37 -18.5t-11 -38.5q0 -16 5 -31q-9 -13 -12.5 -29.5t-9.5 -31.5t-17.5 -25t-36.5 -10q-27 0 -50 8.5t-40 23.5t-26.5 35.5t-9.5 44.5 q0 35 13 73t36 62q9 9 14.5 20.5t10.5 23.5t11.5 23t17.5 19q29 22 75.5 30t93.5 9q15 0 27.5 -5t23.5 -12.5t20.5 -16t20.5 -16.5q7 -6 31 -19t52 -27.5t52.5 -26t33.5 -13.5q11 -3 21 -8.5l20 -11t20.5 -9.5t22.5 -4q10 0 19 2t18 2h5h9q8 0 15 -0.5t14 -0.5q32 0 45.5 16 t13.5 33q0 11 -4 22.5t-4 24.5q0 17 6.5 33.5t17 29t25 20t29.5 7.5q16 0 30 -7.5t25.5 -19t19.5 -26t13 -29.5z" />
<glyph unicode="&#xa2;" horiz-adv-x="1073" d="M1014 1423q0 -16 -7.5 -22t-18.5 -17q-8 -8 -12.5 -21.5t-9 -27.5t-11.5 -25.5t-19 -15.5q-4 -18 -13.5 -39.5t-21.5 -43t-25 -41.5t-24 -35q-6 -10 -15 -15t-15 -14q-6 -14 -3.5 -28.5t-2.5 -28.5q-1 -3 -6 -15t-10 -24.5t-9.5 -23t-5.5 -11.5q-5 -6 -11 -11.5 t-10 -13.5q11 -18 18 -38t7 -42q0 -26 -11.5 -50t-30.5 -44t-42 -34.5t-47 -22.5q-8 -17 -15.5 -34.5t-19.5 -31.5v-16q1 -14 -4 -26t-11.5 -23.5t-13 -23.5t-8.5 -25q-5 -5 -9.5 -10t-10.5 -7v-8q0 -11 -6.5 -18t-8.5 -17q-2 -6 -2 -11.5t-2 -10.5q-3 -17 -16 -31.5 t-21 -30.5q-11 -20 -18 -41t-16 -43l2 -10q9 -8 20.5 -8h22.5q6 0 13 -0.5t13 -5.5q17 11 35 12t37 6q9 3 17.5 8.5t17.5 10.5q19 8 38.5 14.5t37.5 15t34 20.5t29 32q11 17 15 37t14 38q6 11 14 20t8 21q0 10 -3 16.5t-3 14.5q0 16 5.5 32t15.5 28.5t24 20t31 7.5 q7 0 16 -7t17 -17t13 -21t5 -18q0 -10 -3 -19t-3 -18q0 -13 2 -24.5t2 -22.5q0 -14 -3 -26.5t-6.5 -25t-6 -25.5t-0.5 -28q-6 -18 -21.5 -29.5t-27.5 -23.5q-13 -14 -21.5 -29t-24.5 -26q-11 -10 -24.5 -12.5t-26.5 -8.5q-8 -5 -13 -12t-13 -12q-9 -6 -41.5 -15.5 t-70.5 -18.5t-72 -15.5t-46 -6.5q-14 0 -27.5 5t-27.5 5q-28 0 -51 -15t-37 -38q0 -32 -14.5 -57.5t-38.5 -46.5l2 -8q0 -11 -8 -18.5t-11 -16.5q-6 -16 -4 -34t-6 -34q-5 -9 -13.5 -14.5t-13.5 -16.5q-3 -8 -2 -16.5t-2 -17.5q-5 -16 -17 -27.5t-17 -28.5q-3 -9 -4.5 -19.5 t-3.5 -21t-6.5 -19.5t-14.5 -15q1 -17 -6.5 -28.5t-19.5 -19t-27 -11t-29 -3.5q-32 0 -58 18.5t-26 53.5q0 18 2.5 37.5t7.5 38.5q5 18 19 28.5t26 24.5q9 10 14.5 22l11 24t12.5 23.5t18 20.5v8q-1 16 2 26.5t9 19t14.5 17t17.5 19.5q17 57 42.5 109.5t63.5 97.5 q-7 9 -16.5 13t-20.5 7t-21.5 6t-19.5 9q-38 28 -62.5 74t-21.5 94q-4 6 -11 23t-13.5 37t-11.5 38t-5 25q0 9 5.5 11.5t7.5 10.5q-2 6 -7.5 9.5t-5.5 11.5q0 10 3.5 34t9 50.5t11 50t9.5 32.5q3 8 9 13.5t10 11.5q5 11 6.5 22.5t9.5 20.5q12 12 26.5 16.5t26.5 14.5 q23 17 35.5 28.5t20.5 20.5t15 16.5t18 15t30 16t51 20.5q7 10 14.5 15t16.5 7t18.5 3t20.5 3q18 5 34.5 14t34.5 9q20 0 34 -8.5t26 -18.5t24 -18.5t27 -8.5q11 0 17.5 6.5t11 15.5t8 19t8.5 17q-4 7 -4 16q0 20 11.5 36.5t19.5 35.5q5 9 7.5 20t6.5 21t10.5 18.5 t18.5 12.5l-4 14q8 9 15.5 19.5t18.5 19.5q13 31 15.5 63t7.5 64q14 14 18 35t9.5 40.5t17 33.5t39.5 14q18 0 37 -8.5t24 -26.5q25 -9 33 -25t8 -39zM599 915q-25 7 -54 7q-34 0 -56.5 -5.5t-37.5 -15t-26 -21t-22.5 -24t-27 -24.5t-39.5 -21q-4 -17 -17.5 -33.5t-27.5 -32 t-26 -30.5t-13 -29q0 -8 2.5 -14.5t2.5 -14.5q0 -23 -5.5 -45t-7.5 -45q11 -7 14.5 -18t5 -24t2 -25.5t5.5 -22.5t17 -28.5t27 -38t29.5 -35t24.5 -19.5q9 10 17 20.5t8 24.5q29 38 47 81.5t29 88.5q14 10 16.5 25t7.5 29q9 22 24 42l30 40t25.5 41.5t10.5 48.5 q0 14 -7 25.5t-7 25.5q0 10 4 18t9.5 15.5t10 15.5t5.5 18z" />
<glyph unicode="&#xa3;" horiz-adv-x="1282" d="M1200 213q0 -15 -10.5 -24.5t-20.5 -18.5q-14 -12 -20 -21t-9 -18.5t-5 -20t-9 -24.5q-4 -12 -15 -21.5t-24 -18.5t-26.5 -17t-22.5 -17q-15 -14 -35.5 -28t-43 -25t-45.5 -18t-44 -7q-61 0 -107 11.5t-80.5 28t-59 36.5t-43 36.5t-32 28t-26.5 11.5q-20 0 -34.5 -12.5 t-26.5 -26.5q-23 -3 -37.5 -14t-30.5 -27q-8 -1 -21.5 -5.5t-28 -10t-27.5 -9.5t-19 -4q-39 0 -79.5 10.5t-73.5 32.5t-54 54.5t-21 77.5q0 9 3.5 18t3.5 18q0 11 -2.5 20.5t-4.5 20.5h2q11 13 17.5 27.5t15.5 28.5q12 18 31 30.5t41 20.5t45 12t43 4q26 0 52 -8t52 -8 q23 0 41.5 14t18.5 39q0 13 -5 24.5t-11.5 22.5t-14 21.5t-12.5 21.5q-9 21 -14 43.5t-14 41t-24.5 30.5t-45.5 12q-20 0 -39 -7t-39 -7q-16 0 -31.5 6.5t-27.5 17.5t-19.5 26t-7.5 32q0 20 14 28.5t33 8.5q17 0 32.5 -4.5t32.5 -4.5q19 0 38.5 13t19.5 35q0 20 -10.5 36.5 t-18.5 34.5q-12 26 -18 55.5t-19 55.5q-6 15 -15 29.5t-16 31.5q-5 13 -6.5 27.5t-1.5 28.5q0 26 4.5 56.5t14.5 59.5t27 53t42 37q29 14 52 35.5t49 36.5q15 9 31 16.5t30 16.5q23 17 45.5 33.5t50.5 25.5q12 5 46 9.5t72.5 8t74 5.5t51.5 2q14 0 31.5 -2.5t35 -7.5 t33 -12.5t25.5 -16.5q9 -9 17.5 -18t19.5 -17q25 -15 53.5 -20t54.5 -19q19 -10 42.5 -29.5t44 -43.5t34 -50t13.5 -49q0 -69 -5.5 -120t-28 -85t-67.5 -50.5t-123 -16.5q-21 20 -37 30.5t-28.5 18.5t-21.5 15t-14.5 20t-8 34.5t-2.5 57.5q0 17 11.5 27.5t26 23.5t26 33.5 t11.5 58.5q0 22 -8.5 35.5t-22 20t-31.5 8.5t-36 2q-21 0 -41 4.5t-40 9.5t-40.5 9.5t-42.5 4.5q-20 0 -38.5 -6.5t-37.5 -11.5q-127 -22 -183 -92.5t-56 -198.5q0 -15 3.5 -40.5t10 -55t15.5 -61t20.5 -58t24.5 -45.5t28 -24q14 -5 27 -6t27 -1q27 0 55.5 2.5t56.5 2.5 q15 0 30.5 -2t28 -8.5t20 -18.5t7.5 -31q0 -22 -17.5 -31t-43 -12t-56 -3.5t-56 -6.5t-43 -20.5t-17.5 -45.5q0 -20 7 -38.5t15 -36.5q6 -16 8 -33t4.5 -33.5t6 -32t12.5 -30.5q-2 -8 -4 -15.5t-2 -15.5q0 -20 6 -30.5t14.5 -17.5t18.5 -14t18 -20q6 -12 11.5 -24t15.5 -21 q14 -15 45.5 -27t67.5 -21t70.5 -13.5t55.5 -4.5q23 0 47 3t46 16q10 6 25 23.5t29.5 38.5t25 41.5t12.5 31.5q5 19 4.5 43.5t7.5 42.5q5 8 15.5 14.5t22.5 11t24.5 7t21.5 2.5q22 0 38 -18.5t26 -44.5t15 -53t5 -44zM411 193q0 19 -9.5 33t-24.5 23t-32.5 13t-33.5 4 q-22 0 -43 -5.5t-37.5 -17.5t-26.5 -29.5t-10 -41.5q0 -15 12 -27.5t29 -21.5t35.5 -14t30.5 -5q19 0 38.5 5.5t35.5 17t26 28t10 38.5z" />
<glyph unicode="&#xa5;" horiz-adv-x="1326" d="M1202 719q-8 -20 -23 -33t-26 -28q-12 -2 -31.5 -3.5t-31.5 -13.5q-26 9 -55.5 11.5t-59.5 5t-58.5 8t-52.5 20.5q-27 -15 -58 -15q-17 0 -32 3q-7 -32 -9 -64t-2 -58q0 -27 8.5 -53t8.5 -53t-4 -54.5t-4 -54.5q0 -14 2 -26.5t2 -25.5q0 -14 -0.5 -23t-0.5 -16 q0 -11 5 -19t22 -28q4 -5 11.5 -16t13.5 -11q17 0 33.5 4.5t33 10t33 10t34.5 4.5q2 0 11.5 -2t21 -5t23 -5.5t18.5 -3.5q4 -7 7.5 -13.5t6.5 -14.5q9 -4 20.5 -8.5t21.5 -11t17 -15.5t7 -21q0 -15 -4.5 -29.5t-4.5 -29.5q0 -13 -23 -20t-53 -10.5t-58 -4.5t-38 -1 q-68 0 -134.5 5t-134.5 5q-43 0 -84.5 -7.5t-83.5 -7.5q-23 0 -45 6t-45 6q-26 0 -50.5 -8.5t-50.5 -8.5q-15 0 -27 4q0 13 -5.5 24t-12 21.5t-12 21.5t-5.5 24q0 24 21.5 39.5t54.5 25t73.5 14.5t79.5 7.5t71 3.5t49 4q10 19 16 47t9.5 60.5t4.5 67.5t1 69q0 76 0.5 136.5 t-15.5 116.5q-17 1 -33 1.5t-33 0.5q-38 0 -75.5 -3t-82.5 -13q-3 1 -3 6q0 3 1 6.5t1 6.5q0 10 -20 10q-12 0 -15.5 -8t-8.5 -15q-17 3 -31 3q-15 0 -30.5 -2.5t-34.5 -6.5q-26 10 -42 29t-25.5 43t-13 50.5t-3.5 52.5v17q16 12 38 21.5t42 11.5q45 3 90.5 -9t89.5 -36 q21 11 41.5 14t40.5 3q-8 21 -16 43t-19 43q-35 63 -64.5 127.5t-52.5 133.5q-14 2 -21 7t-11.5 11t-9.5 12.5t-15 11.5q-12 6 -34 9.5t-48 7t-52.5 8.5t-48.5 12.5t-36 20t-14 31.5q0 21 14 42t28 36q16 17 42.5 27t56 15.5t60 7t55.5 1.5h21l64 -1q26 0 49 -4.5t45 -10.5 t44.5 -12.5t48.5 -10.5q19 -1 31 -18.5t16 -39.5t0.5 -43t-15.5 -30q-12 -3 -21 -8.5t-18 -13t-19.5 -17.5t-25.5 -23q-3 -20 -3 -40q0 -21 5 -33.5t11 -21t11 -16t5 -17.5q0 -22 12.5 -46t30.5 -46.5t37 -43t33 -35.5h3q9 0 20.5 8t22.5 19.5t18.5 24.5t7.5 22q0 10 7 18.5 t16.5 17t19 16t14.5 16.5v43q6 6 11.5 11t9.5 11t6 14t2 21q0 8 -0.5 14.5t-0.5 14.5q7 11 14 21.5t15 20.5q9 21 0.5 30t-25 12t-35.5 3.5t-31 3.5l-12 2q-12 2 -27 7.5t-26 28.5q-12 24 -7.5 42.5t17.5 31.5t31 21t33 12q26 8 51.5 14t51.5 6q30 0 59.5 -5.5t59.5 -5.5 q32 0 63.5 6t63.5 6q21 0 40 -3t34.5 -10.5t26.5 -22t16 -36.5q5 -23 2 -37t0 -22q-14 -36 -37.5 -52t-50.5 -23t-55 -11.5t-50 -17.5t-36.5 -41t-14.5 -81q-14 -9 -29 -24.5t-28.5 -33.5t-25 -36.5t-17.5 -33.5q11 -4 12 -12q-8 -14 -13 -30t-13 -30q-5 -9 -11 -14.5 t-11 -11t-9 -13t-5 -21.5q24 3 49.5 9t51.5 6q32 0 61 -13q5 13 13.5 21t19.5 14q19 -9 41.5 -15.5t42.5 -15t35.5 -21t21.5 -34.5q-5 1 -5 -12t2.5 -29t6 -29.5t6.5 -13.5zM536 851q-2 0 -3 0.5t-3 0.5q-11 0 -19 -10t-8 -20q0 -3 5 -10t12 -14.5t14 -13.5t12 -6 q26 1 26.5 10.5t-8.5 21.5t-20 24t-8 17z" />
<glyph unicode="&#xa8;" horiz-adv-x="639" d="M639 1409q0 -38 -1.5 -66t-11 -48t-31.5 -32.5t-63 -19.5q-8 -2 -14 -4t-14 -2q-19 0 -42 12.5t-42.5 31.5t-33 41t-13.5 40q0 15 1 36.5t5.5 42.5t12.5 39.5t22 28.5t31.5 13.5t31.5 11.5q6 2 12 2q31 0 58.5 -7t48 -22.5t32 -39.5t11.5 -58zM268 1354q0 -9 -3 -14 t-7 -9.5t-8 -10t-6 -15.5q-23 -29 -44 -42.5t-61 -13.5h-28.5t-16.5 2q-6 3 -13 9.5t-20 17.5q-6 3 -12.5 6t-9.5 8q-5 8 -6 16.5t-6 16.5q-6 11 -11 15t-8.5 7.5t-5.5 10.5t-2 24q0 23 1.5 33t16.5 27q7 8 10 17.5t11 17.5q7 8 18.5 14.5t25 11t27 6.5t25.5 2q31 0 56 -14 t42 -36t26 -50.5t9 -56.5z" />
<glyph unicode="&#xa9;" horiz-adv-x="1220" d="M1108 693q0 -7 -4.5 -15t-4.5 -13q0 -7 4 -15.5t4 -17.5q0 -20 -6.5 -38.5t-15 -37t-15.5 -37.5t-7 -40q0 -8 -0.5 -12.5t-3 -8.5t-7.5 -9t-15 -14q-11 -10 -16.5 -16.5t-8.5 -10.5t-4 -6.5t-2 -5.5h1q-8 -16 -20.5 -28t-19.5 -29l-10 -17q-9 -8 -23.5 -14.5t-28.5 -11.5 t-25.5 -9.5t-14.5 -9.5q-12 -11 -20 -16.5t-14.5 -8.5t-13 -4t-15.5 -3l-19 -4h2q-23 -8 -32 -14q-11 -7 -18.5 -9.5t-18 -4t-26 -3t-42.5 -5.5l-10 -3q-5 -2 -11 -3.5t-14 -1.5q-35 0 -63 8t-58 8q-75 31 -142.5 69.5t-135.5 86.5q-5 10 -5.5 16t-0.5 13q-5 20 -16.5 32 t-23.5 24t-21.5 28t-9.5 43q0 13 6 22.5t6 19.5q-7 8 -16 25.5t-9 49.5q0 12 7 27t7 32q0 3 -4 6.5t-9.5 8.5t-9.5 13.5t-4 20.5q0 5 2 16t5.5 24.5t7 29t6.5 30.5v-1q5 22 8.5 38.5t3.5 18.5l18 17l-2 -1q7 9 8.5 15.5t1.5 13.5t1.5 14t9.5 18q3 3 8.5 7t11.5 7.5t10.5 7.5 t6.5 9l-1 -1q8 25 30 45.5t51 37t61 29.5t59 24l26 10q28 11 60 28t69 18q14 0 34 -0.5t40 -2.5t38 -5t27 -7h-1l11 -5q10 -7 27 -6t25 -1l17 -10q26 -15 49.5 -29.5t42.5 -31.5q5 -5 18.5 -8.5t28 -6.5t27 -7t15.5 -11v1l8 -13l-1 1q9 -13 15.5 -26.5t8.5 -29.5l8 -7 q17 -20 30.5 -42t13.5 -50q0 -12 2.5 -18.5t6 -11t8 -10t8.5 -14.5v1q6 -12 11 -34t8.5 -46.5t6 -47t2.5 -34.5zM966 657q0 20 -2.5 40t-2.5 44q0 8 2.5 14t2.5 10q0 12 -4.5 23.5t-10.5 23.5t-10.5 24.5t-4.5 26.5q0 4 -1 12t-4 16.5t-9.5 16.5t-16.5 14h1l-11 6 q-7 5 -11.5 12.5t-9.5 15.5q-11 16 -36 36.5t-57.5 39t-67 31.5t-63.5 13q-23 0 -58 -2t-69.5 -6.5t-61.5 -12t-33 -17.5l-4 -9q-14 -17 -33.5 -27.5t-26.5 -19.5l3 2l-5 -6q-10 -11 -18 -20t-16.5 -16.5t-18.5 -14.5t-25 -15q0 -5 3.5 -15.5t3.5 -14.5q0 -19 -6.5 -36 t-14 -33.5t-13.5 -33t-6 -34.5q0 -10 4 -17t4 -24q-8 -6 -16 -14t-8 -16q0 -4 11 -13l13 -7q0 -12 -1 -18.5t-1 -9.5q0 -10 5 -21t5 -18q0 -9 -4 -18l1 1q-1 -3 -2 -8.5t-1 -4.5q1 -4 4.5 -7.5t8 -7t7.5 -5.5t3 -3q13 -11 22.5 -27.5t18.5 -33.5q8 -19 25.5 -37t40.5 -34 t50.5 -29.5t56.5 -22.5l-2 1l14 -3q23 -7 29.5 -12.5t11 -9.5t13 -6t35.5 -2q33 0 54 4t40 10.5t39 16t50 20.5l-1 -1l38 15h-1q12 7 27.5 23.5t31 35.5t28.5 37.5t18 30.5v-1q17 47 30 79.5t13 68.5zM866 820q0 -19 -18 -35.5t-39 -16.5q-11 0 -23 10t-23 23.5t-19.5 28 t-11.5 23.5l-7 4q-15 11 -25 19t-18 16q-6 6 -19 9t-27 4.5t-25 2t-13 0.5q-29 0 -49.5 -16.5t-35.5 -35.5v1l-7.5 -9t-16.5 -26.5t-17 -41.5t-8 -52q0 -25 2 -49.5t9 -49t21 -48t39 -45.5q0 6 7 3t15 -8t15 -9.5t6 -2.5l-1 1q2 -3 8 -5t32 -2q14 0 32 7.5t35 19t31.5 24.5 t20.5 24q5 4 10 14.5t10.5 22t11.5 21.5t12 14l-1 -2q13 10 32 10q22 0 36.5 -12.5t14.5 -34.5q0 -12 -7 -33.5t-17 -43t-20.5 -38t-16.5 -18.5q-8 -9 -9.5 -12t-9.5 -11l3 1q-11 -13 -26 -22t-31 -15.5t-31.5 -11.5t-27.5 -11h1l-22.5 -9t-30.5 -5q-6 0 -16 0.5t-21 2 t-22 4t-19 6.5l-6 8q-2 2 -6 4.5t-22 8.5q-13 2 -24.5 6.5t-19.5 15.5l2 -1q-8 6 -8 9t-5 11q-3 4 -7.5 3.5t-15.5 9.5q-6 6 -11.5 15.5t-10 19t-8.5 17.5t-7 11l-12 14q-4 7 -10 23t-12 33.5t-10.5 33.5t-4.5 24v44q0 9 4.5 18.5t4.5 14.5t-1.5 11t-1.5 16q0 11 3 22.5 t8.5 26.5t14.5 35.5t21 49.5q4 7 19.5 21t34 29t36 27t25.5 16q5 1 14.5 2.5t19.5 3t19 2t12 0.5l16 5l-1 -1q5 2 11.5 3.5t14.5 1.5q4 0 16.5 -2t27.5 -4.5t28.5 -5.5t18.5 -4q9 -3 30 -19.5t43.5 -37.5t41.5 -41t24 -28l3 -12q2 -12 10 -21.5t8 -23.5z" />
<glyph unicode="&#xab;" horiz-adv-x="935" d="M803 379q0 -12 -4 -25t-11.5 -23.5t-18.5 -17t-25 -6.5q-27 0 -46.5 12.5t-36.5 30t-33.5 36t-37.5 30.5q-6 3 -13 6t-14 8q-11 18 -35 32t-48 29t-42 32.5t-18 41.5q0 22 19.5 45.5t45.5 46.5t51.5 45t37.5 41q5 8 12.5 13t15 9.5l15 9t12.5 11.5q8 13 10.5 29t12.5 29 q3 4 14 11t23.5 14t24.5 12.5t17 5.5q22 0 33.5 -19t11.5 -39q0 -18 -2.5 -28t-8 -17t-14.5 -12.5t-22 -13.5q-8 -6 -23.5 -21.5t-31 -33t-28 -34.5t-15.5 -26q-7 -7 -16 -14t-17.5 -15t-14.5 -17.5t-7 -21.5q8 -13 20 -24t24.5 -20t23 -16.5t14.5 -14.5q5 -8 7.5 -15 t10.5 -12q17 -2 24.5 -7.5t18.5 -16.5q16 -16 30.5 -21t31.5 -16q22 -10 22 -33zM475 379q0 -12 -4 -25t-11.5 -23.5t-18.5 -17t-25 -6.5q-27 0 -46.5 12.5t-36.5 30t-33.5 36t-37.5 30.5q-6 3 -13 6t-13 8q-12 18 -36 32t-48 29t-42 32.5t-18 41.5q0 22 19.5 45.5 t45.5 46.5t51.5 45t37.5 41q5 8 12.5 13t15 9.5l15 9t12.5 11.5q8 13 11 29t12 29q3 4 14 11t23.5 14t24.5 12.5t18 5.5q21 0 33 -19t12 -39q0 -18 -2.5 -28t-8 -17t-14.5 -12.5t-22 -13.5q-8 -6 -23.5 -21t-31.5 -33t-28.5 -35t-15.5 -26q-7 -7 -16 -14t-17.5 -15 t-14.5 -17.5t-7 -21.5q8 -13 20.5 -24t25 -20t22.5 -16.5t14 -14.5q5 -8 7.5 -15t10.5 -12q17 -2 24.5 -7.5t18.5 -16.5q16 -16 30.5 -21t31.5 -16q22 -10 22 -33z" />
<glyph unicode="&#xad;" horiz-adv-x="1303" d="M1172 639q-8 -20 -23 -33t-26 -28q-12 -2 -31.5 -3.5t-31.5 -13.5q-26 9 -55.5 11.5t-59.5 5t-58.5 8t-52.5 20.5q-27 -15 -58 -15q-19 0 -37 4.5t-34 10.5q-24 -2 -46.5 -3t-43.5 -1q-27 0 -52 1t-50 1q-38 0 -75.5 -3t-82.5 -13q-3 1 -3 6q0 3 1 6.5t1 6.5q0 10 -20 10 q-12 0 -15.5 -8t-8.5 -15q-17 3 -31 3q-15 0 -30.5 -2.5t-34.5 -6.5q-26 10 -42 29t-25.5 43t-13 50.5t-3.5 52.5v17q8 6 19 9t22.5 5.5t22 6.5t16.5 12q15 -16 37 -20.5t46.5 -6t49.5 -4t47 -14.5q22 11 43 14t41 3q17 0 33 -1t32 -1q19 0 37 3q10 -9 25.5 -12.5t34.5 -3.5 q26 0 53.5 5t48.5 11q14 -9 29 -12.5t30 -3.5q31 0 63.5 8.5t66.5 8.5q32 0 61 -13q5 13 13.5 21t19.5 14q19 -9 41.5 -15.5t42.5 -15t35.5 -21t21.5 -34.5q-3 -10 -8 -10t-10 3t-13 3h-4q0 -8 5 -10.5t11.5 -3.5t12 -2t6.5 -7q-1 -4 -1 -7.5v-6.5q0 -26 11 -43zM259 758 q-2 0 -3 0.5t-3 0.5q-11 0 -19 -10t-8 -20q0 -6 4 -10.5t13 -5.5q7 1 9 6.5t2.5 12t1 14t3.5 12.5z" />
<glyph unicode="&#xae;" horiz-adv-x="1220" d="M1106 687q-7 -12 -7 -22q0 -7 4 -15.5t4 -17.5q0 -21 -6.5 -39.5t-14.5 -37.5t-15 -37.5t-8 -39.5q-1 -14 -5 -23t-23 -23q-13 -9 -25 -26t-23 -34.5t-19.5 -33t-14.5 -21.5q-7 -8 -19 -13t-24.5 -8.5t-25 -7.5t-19.5 -11q-12 -11 -20 -16.5t-14.5 -8.5t-13 -4t-15.5 -3 l-19 -4h2l-27 -12q-12 -7 -20.5 -10t-19 -5t-26.5 -3.5t-44 -5.5l-10 -3q-5 -2 -11 -3.5t-14 -1.5q-54 0 -107 15.5t-104 40t-98.5 55t-89.5 61.5q-4 7 -5 16.5t-1 14.5q-5 17 -16.5 28.5t-23.5 24t-21.5 29t-9.5 43.5q0 12 6 21t6 20l-4 6.5t-8.5 17.5t-8.5 24.5t-4 27.5 q0 12 7 27t7 32q0 3 -4 6.5t-9.5 9.5t-9.5 14t-4 19q0 5 2 16t5.5 24.5t7 29t6.5 30.5v-1q5 22 8.5 38.5t3.5 18.5l18 17l-2 -1q7 8 8.5 15t2.5 14t2 14.5t7 16.5l11 6q3 2 7 5t3 2l-2 -1q13 8 15 11.5t4 8.5l-1 -1l9 22q11 20 33 37t49 31t56 25.5t54 20.5l26 10 q14 5 29 13t31 15.5t33.5 12.5t35.5 5q15 0 34.5 -1t39.5 -2.5t37.5 -5t28.5 -7.5l8 -3q9 -5 20 -6l22 -2h11q29 -17 53.5 -32.5t47.5 -32.5q9 -8 23.5 -12.5t28.5 -7.5t26.5 -6.5t17.5 -10.5v1q11 -14 20.5 -32.5t11.5 -37.5l8 -7q17 -20 30.5 -42t13.5 -50q0 -13 2.5 -19 t7.5 -12h-1q11 -9 16 -23v1q6 -12 11 -34t8.5 -46.5t6 -47t2.5 -34.5zM858 441q0 -13 4 -13q7 0 20 19.5t26.5 44t25 46.5t14.5 27l-2 -3l7 26q5 18 8.5 35t4.5 34q0 20 -2.5 40t-2.5 44q0 8 2.5 14t2.5 10q0 12 -4.5 23.5t-10.5 23.5t-10.5 24.5t-4.5 26.5q0 4 -1 12 t-4 16.5t-9.5 16.5t-16.5 14h1l-11 6q-8 6 -12.5 13.5t-8.5 15.5q-7 15 -33 35.5t-59.5 39t-69 31.5t-62.5 13q-15 0 -46.5 -1.5t-65 -4.5t-62 -8t-37.5 -12v1q-4 -4 -12 -17l1 4q-7 -14 -18.5 -22.5t-19.5 -13.5l-28 -24q-10 -11 -18 -20t-16.5 -16.5t-18.5 -14.5t-25 -15 q0 -5 3.5 -15.5t3.5 -14.5q0 -19 -6.5 -36t-14 -33.5t-13.5 -33t-6 -34.5q0 -10 4 -17t4 -24q-8 -6 -16 -14t-8 -16q0 -4 11 -13l13 -7q0 -12 -1 -18t-1 -10q0 -10 5 -21t5 -18q0 -9 -4 -18l1 1q-1 -3 -2 -8.5t-1 -4.5q2 -8 13 -15t12 -9l-2 1q12 -12 24 -34t24 -43.5 t24 -38t24 -16.5q2 0 5.5 9.5t6.5 21.5t5.5 23.5t2.5 16.5q0 17 -5.5 37.5t-5.5 46.5q0 29 5.5 58t5.5 56q0 3 -2 9.5t-4 12.5h2q-4 8 -5 17t-1 17q0 3 1.5 6.5t1.5 9.5q0 5 -1.5 12.5t-1.5 16.5q0 11 0.5 20t0.5 20q0 23 3.5 43t7.5 40q-2 0 -4 7.5t-2 12.5q0 25 9 40 t24 23t34 10.5t39 2.5q10 0 22 -0.5t23 -0.5q2 0 8 2t20 2q33 0 62 -4.5t58 -4.5q20 0 36.5 -8.5t31 -20.5t28 -25t27.5 -22q11 -8 17.5 -20t10 -25.5t4.5 -27.5t1 -25v-5q0 -41 -16 -80t-54 -68q-11 -8 -18 -11t-9 -5l4 -4q7 -10 14.5 -21t7.5 -28q1 0 7 -14.5t14.5 -33 t18.5 -37t18 -26.5h-1q8 -8 14.5 -17t6.5 -20zM744 353q10 12 10 19q0 9 -6.5 18.5t-14.5 26.5l1 -1l-22 34q-5 15 -7.5 24t-4.5 18v1q-4 12 -8.5 26.5t-9.5 24.5q-5 2 -16 11.5t-15 27.5l-10 4q-4 1 -9 5.5t-9.5 9l-8 8l-3.5 3.5q-9 0 -17 -2t-19 -2q-17 0 -28 4t-17 4 t-9.5 -9.5t-7.5 -15.5q0 -6 2 -11.5t2 -19.5v-72q0 -7 -3.5 -13.5t-6.5 -10.5q2 -5 6 -12.5t4 -15.5q0 -21 -4 -34t-8.5 -21.5t-8.5 -13t-4 -7.5q0 -4 8.5 -7t29.5 -11l-1 1q14 -5 17.5 -9.5t7 -8t12 -6t33.5 -2.5t44 2.5t35.5 7.5t32 11t33.5 14zM720 856q-6 5 -12.5 9.5 t-14.5 9.5q-3 3 -21.5 5t-40 3.5t-41 2.5t-25.5 1h-13h-20.5t-19 0.5l-8.5 0.5q0 -6 2.5 -12.5t2.5 -14.5l-3 -32q-1 -8 -1.5 -15.5t-0.5 -14.5q0 -1 1 -13t3 -26.5t4.5 -26.5t5.5 -12q12 0 25 3t30 3t38 -6l-1 1q8 -2 12.5 -3.5t12.5 -1.5l7.5 3l7.5 3h-1q8 4 16 6.5 t16 4.5q15 3 25 13t16.5 24t9 30t2.5 30z" />
<glyph unicode="&#xb4;" horiz-adv-x="467" d="M11 1188q0 11 13.5 27t31.5 32t36.5 29t28.5 18q38 20 56.5 30t32.5 20.5t30.5 25.5t50.5 45q13 11 20.5 28.5t18.5 25.5q13 9 34.5 13.5t35.5 4.5q15 0 25.5 -6.5t17.5 -16.5t10.5 -23t3.5 -26q0 -12 -2.5 -26t-8 -27.5t-13 -25.5t-17.5 -19q-12 -7 -26 -10t-29 -4.5 t-29 -4t-26 -8.5q-29 -15 -42.5 -22.5t-24 -14t-23 -14t-39.5 -22.5q-7 -3 -12 -12t-13 -15t-18.5 -9t-18.5 -9q-14 -13 -24.5 -26t-30.5 -13q-9 0 -17.5 5.5t-15.5 13.5t-11.5 17.5t-4.5 18.5z" />
<glyph unicode="&#xb8;" horiz-adv-x="434" d="M434 -166q0 -12 -5.5 -26t-14 -27.5t-19 -24.5t-20.5 -16q-8 -5 -16.5 -6t-16.5 -4q-9 -4 -14 -8.5t-10 -8t-11.5 -6t-17.5 -2.5q-37 0 -59.5 6.5t-40 16.5t-36 22t-47.5 23q-15 5 -33 10.5t-34.5 13.5t-27.5 20.5t-11 32.5q0 14 2.5 28t9 25t17.5 18t28 7q18 0 33 -6 t29 -14.5t28 -16.5t31 -12q6 -2 12 -2t13 -2q14 -3 25.5 -10.5t25.5 -7.5q6 0 10.5 3t9.5 5q8 3 16.5 4t16 3.5t12 8t4.5 17.5q0 18 -8.5 29t-19 19.5t-19 17t-8.5 20.5q0 23 19 32t39 9q14 0 32.5 -8t35 -21t27.5 -28.5t11 -30.5q0 -23 -4 -43q0 -16 3 -30t3 -30z" />
<glyph unicode="&#xbb;" horiz-adv-x="933" d="M841 629q0 -22 -19.5 -45.5t-45.5 -46.5t-51.5 -45t-37.5 -41q-4 -8 -11 -13t-14.5 -9.5l-15 -9t-12.5 -11.5q-9 -13 -12 -29t-13 -27q-3 -4 -14 -11.5t-23.5 -15t-24 -13t-16.5 -5.5q-23 0 -35 19t-12 39q0 18 3 28t9 17t15 12.5t22 13.5q9 6 24 21t30 33t27.5 35 t15.5 26q7 7 17 14t18 15t14 17t6 21q-7 14 -19 25t-25 20t-23.5 16.5t-14.5 14.5q-5 8 -7.5 15t-10.5 12q-17 2 -23.5 7.5t-17.5 16.5q-16 16 -31.5 21t-32.5 16q-9 5 -15.5 13.5t-6.5 19.5q0 12 4.5 25t12 23.5t18.5 17t24 6.5q28 0 48 -12.5t37 -30t33.5 -35.5t37.5 -29 q6 -5 12 -8t12 -8q12 -18 36 -32t48 -29t42 -32.5t18 -41.5zM513 629q0 -22 -19.5 -45.5t-45.5 -46.5t-51.5 -45t-37.5 -41q-4 -8 -11 -13t-14.5 -9.5l-15 -9t-12.5 -11.5q-9 -13 -12 -29t-12 -27q-3 -5 -14 -12.5t-24 -14.5t-24.5 -12.5t-15.5 -5.5q-23 0 -35 19t-12 39 q0 18 2.5 28t8.5 17t15 12.5t23 13.5q8 6 23 21.5t30 33.5t27.5 34.5t15.5 25.5q8 8 17.5 15t18 14.5t14 16.5t5.5 21q-7 14 -19 25t-25 20t-23.5 16.5t-14.5 14.5q-5 8 -7.5 15t-10.5 12q-17 2 -23.5 7.5t-17.5 16.5q-15 16 -30.5 21t-32.5 16q-10 5 -16.5 13.5t-6.5 19.5 q0 12 4.5 25t12.5 23.5t18.5 17t23.5 6.5q28 0 48 -12.5t37 -30t33.5 -35.5t37.5 -29q6 -5 12 -8t13 -8q12 -18 36 -32t47.5 -29t41.5 -32.5t18 -41.5z" />
<glyph unicode="&#xc0;" horiz-adv-x="1126" d="M0 0zM1126 71q0 -11 -6 -21.5t-15 -19t-20 -14t-21 -5.5q-7 0 -14 1t-14 1q-9 0 -12 -5.5t-5.5 -11.5t-7.5 -11.5t-18 -5.5q-8 0 -17 2t-18 2q-19 0 -36.5 -7.5t-37.5 -7.5q-17 0 -51 5.5t-68.5 17t-60.5 28t-26 38.5q0 17 19.5 34.5t43.5 39t43.5 48.5t19.5 63 q0 21 -8.5 41t-21.5 37.5t-29.5 32.5t-31.5 28q-5 2 -15 2q-27 0 -54 -5.5t-54 -5.5q-14 0 -28.5 4t-19.5 20q-26 -13 -52 -24.5t-53 -20.5q-17 -6 -24.5 -9t-11 -7t-5 -12t-7.5 -23q-4 -10 -4 -18v-18q0 -13 -5 -20.5t-10.5 -14t-10.5 -13.5t-5 -18q0 -9 3 -16l-1 -5 q0 -15 8 -23.5t19.5 -13t24.5 -8.5t23 -10t19.5 -19.5t17 -29t12.5 -31t5 -26.5v-5h-13q-40 0 -79.5 -3.5t-78.5 -8t-78.5 -8t-79.5 -3.5q-14 0 -40.5 1t-52.5 5.5t-45.5 15t-19.5 30.5q0 21 9.5 35t25 23.5t35 16t39 12.5t37 12t29.5 16t20 32.5t13 48.5t9 51.5t7 40.5 q1 5 1.5 12.5t1 15.5t1 15t2.5 10q10 17 15.5 20t8 5t3 10.5t0.5 35.5q0 12 5 18.5t10.5 11.5t10.5 9.5t5 12.5q0 14 -8 25.5t-8 25.5q0 8 4 14t9.5 11t9.5 10.5t4 13.5q0 11 -4.5 22t-4.5 22q0 8 5.5 11.5t12 5.5t12 3.5t5.5 4.5q-3 6 -11 6q-12 0 -12 -13q-7 5 -12 11.5 t-5 14.5q0 10 5 18.5t11.5 19.5t11.5 25t5 34q0 21 -6 40.5t-6 39.5q0 10 4.5 20t11 19.5l13 19t9.5 20.5q6 19 6.5 40l1 42t3 41.5t12.5 38.5q9 16 14 26t9 19.5t7 21t6 30.5q5 29 15.5 56t14.5 56q2 22 2.5 37.5t5 27.5t16 21t35.5 18q26 9 52 12.5t52 3.5q30 0 62 -3 q3 -17 13 -30.5t21.5 -26.5t22 -26.5t14.5 -30.5q5 -23 6.5 -43.5t16.5 -40.5q7 -11 7 -26q0 -23 -6 -44t-6 -43q0 -13 8 -43t19 -64.5t21 -67t15 -50.5q9 -38 9.5 -78t12.5 -78q12 -40 21 -79.5t12 -81.5q2 -39 10 -75.5t17 -73t16.5 -73.5t7.5 -77q0 -15 -2.5 -31 t-13.5 -28q21 -25 47.5 -54t52.5 -46q10 -6 31 -9t42.5 -7.5t38 -13t16.5 -24.5v0zM707 610q0 9 -7 23.5t-15.5 32.5t-15.5 39t-7 44q0 27 -8 53.5t-11 53.5q-2 22 -4.5 48.5t-10.5 50t-24.5 39t-47.5 15.5q-2 -8 -7 -11.5t-11.5 -6t-13.5 -4.5t-11 -7q1 -3 1 -9 q0 -18 -7.5 -33.5t-13.5 -31.5q-7 -17 -9.5 -35.5t-2.5 -36.5q0 -16 1 -31t1 -30q0 -23 -4 -39.5t-9 -30.5t-9 -26.5t-4 -26.5q0 -30 2 -52t9 -36.5t20 -22t36 -7.5q16 0 46.5 4t61 13.5t53 24.5t22.5 36zM605 1542q0 -9 -4.5 -18.5t-11.5 -17.5t-15.5 -13.5t-17.5 -5.5 q-20 0 -30.5 13t-24.5 26q-8 6 -18.5 9t-18.5 9t-13 15t-12 12q-27 15 -39.5 22.5t-23 14t-24 14t-42.5 22.5q-12 6 -26 8.5t-29 4t-29 4.5t-26 10q-10 7 -17.5 19t-13 25.5t-8 27.5t-2.5 26q0 13 3.5 26t10.5 23t17.5 16.5t25.5 6.5q14 0 35.5 -4.5t34.5 -13.5 q11 -8 18.5 -25.5t20.5 -28.5q34 -30 50.5 -45t30.5 -25.5t32.5 -20.5t56.5 -30q10 -5 28.5 -18t36.5 -29t31.5 -32t13.5 -27z" />
</font>
</defs>
</svg>
